Printable Version of Topic

Click here to view this topic in its original format

Metal Area - Extreme Music Portal _ New Releases _ Woeful Echo - Dampening Existence (2020)

Posted by: Samaritianin Oct 16 2020, 17:36:44

https://metalarea.org/images/audiocovers/2020_Oct/acov_tid342651.jpg

*Artist: Woeful Echo
*Album: Dampening Existence
*Year: 2020
*Genre: Atmospheric/Depressive Black Metal
*Country: United States
*Format: mp3@CBR320kbps
*Size: 90MB

Tracklist:
01. Apostles Of Nihilism
02. Delusions Of Grandeur
03. The Silence Of God
04. Dampening Existence
05. Pits Of Ignorance
06. Walking Among The Depraved
07. Chained To Walls Of Doubt
08. Between Layers Of Ether
09. Untouched Stone In The Desert
10. Dreaming Of Unrest
******************************
Total playing time: 38:47

https://woefulecho.bandcamp.com/track/pits-of-ignorance-track-premiere
https://www.facebook.com/WoefulEcho/

Extended info
D. All instruments, Vocals
See also: Anomaly in Effigy, Astral Projection, Lilin, Necrosadist, Shitestrom, Strigoi VII, Stygian Vacuity, Succorbenoth, Tryblith, ex-Arsh Anubis, ex-Dark Monarchy, ex-EmptyLife, ex-Sorrow Lasts, ex-Mercuric


Technical info

Input File: 04 Dampening Existence.mp3
Channels : 2
Sample Rate : 44100
Precision : 16-bit
Duration : 00:04:00.08 = 10587440 samples = 18005.9 CDDA sectors
File Size : 9.72M
Bit Rate : 324k
Sample Encoding: MPEG audio (layer I, II or III)
Comments :
Title=Dampening Existence
Artist=Woeful Echo
Album=Dampening Existence
Tracknumber=04
Year=2020



[ Hidden Text ]

Posted by: isvili Oct 18 2020, 17:07:57

Кстати очень и очень не плохо. Depressive не услышал, может по текстам что есть, а так просто добротный Black Metal.

Posted by: singrad Nov 1 2020, 08:36:09

Different from their previous releases but still sounds very powerful.

Powered by Invision Power Board
© Invision Power Services