Printable Version of Topic

Click here to view this topic in its original format

Metal Area - Extreme Music Portal _ New Releases _ Leshen - Of Cosmos: Creation & Chaos [ep] (2020)

Posted by: Necrokilldozer Oct 16 2020, 18:20:42

http://metalarea.org/images/audiocovers/2020_Oct/acov_tid342655.jpg

*Artist: Leshen
*Album: Of Cosmos: Creation & Chaos [ep]
*Year: 2020
*Genre: Progressive/Thrash Metal
*Country: United States
*Format: mp3@CBR320kbps
*Size: 61MB

Tracklist:
1. The Cold Chill of Eternity
2. The Infinite Has Become Infant
3. Nihilistic Cosmic Horror
4. The War of Light
5. The Patterns of Destiny
******************************
Total playing time: 25:37

https://leshenband.bandcamp.com

Extended info
Line - up:

John Hoelscher - Bass
Frank Hernandez - Drums
Joshua Payne - Guitars (Epyon, ex-Judicator)
Jordan Lunsford - Guitars
Gabe Rodriguez - Guitars (Epyon)
Michelle Raelyn - Vocals



Technical info

Input File: 01 - The Cold Chill of Eternity.mp3
Channels : 2
Sample Rate : 44100
Precision : 16-bit
Duration : 00:03:44.30 = 9891718 samples = 16822.6 CDDA sectors
File Size : 8.98M
Bit Rate : 320k
Sample Encoding: MPEG audio (layer I, II or III)
Comments :
Title=The Cold Chill of Eternity
Artist=Leshen
Album=Of Cosmos: Creation & Chaos
Tracknumber=1
Year=2020
Genre=Progressive/Thrash Metal



[ Hidden Text ]

Powered by Invision Power Board
© Invision Power Services