Printable Version of Topic

Click here to view this topic in its original format

Metal Area - Extreme Music Portal _ New Releases _ Quitters - Man (2020)

Posted by: Necrokilldozer Oct 16 2020, 19:42:22

http://metalarea.org/images/audiocovers/2020_Oct/acov_tid342658.jpg

*Artist: Quitters
*Album: Man
*Year: 2020
*Genre: Sludge/Doom Metal
*Country: Denmark
*Format: mp3@CBR320kbps
*Size: 80MB

Tracklist:
1. I Am Weak 02:37
2. Under My Skin 02:40
3. Share My Fear 03:02
4. Earthly Delights 02:41
5. Down in the Mud 03:58
6. Nuclear Breeze 03:08
7. You Disgust Me 03:01
8. Paranoid 04:13
9. Lie to Me 03:07
10. Imaginary Friends 05:02
******************************
Total playing time: 33:29

https://quitters666.bandcamp.com

Extended info
FLAC RIP



Technical info

Input File: 06. Nuclear Breeze.mp3
Channels : 2
Sample Rate : 44100
Precision : 16-bit
Duration : 00:03:08.12 = 8296136 samples = 14109.1 CDDA sectors
File Size : 7.59M
Bit Rate : 323k
Sample Encoding: MPEG audio (layer I, II or III)
Comments :
Title=Nuclear Breeze
Artist=Quitters
Album=Man
Tracknumber=6
Year=2020
Genre=Sludge/Doom Metal



[ Hidden Text ]

Powered by Invision Power Board
© Invision Power Services