Printable Version of Topic

Click here to view this topic in its original format

Metal Area - Extreme Music Portal _ New Releases _ Apocalyptic Society - The Silent Extinction [ep] (2020)

Posted by: Necrokilldozer Nov 20 2020, 19:11:14

http://metalarea.org/images/audiocovers/2020_Nov/acov_tid344187.jpg

*Artist: Apocalyptic Society
*Album: The Silent Extinction [ep]
*Year: 2020
*Genre: Death Metal
*Country: United States
*Format: mp3@CBR320kbps
*Size: 32MB

Tracklist:
1. Distorted 02:09
2. Quiet Room 05:54
3. The Silent Extinction 05:18
******************************
Total playing time: 13:21

https://apocalypticsociety.bandcamp.com/album/the-silent-extinction

Extended info
Line - up:

Ryan Lacerenza - Bass
Dan Hoffman - Guitars (rhythm)
Michael Beers - Vocals
Bailey Usilton - Guitars
Zach Kuhn - Guitars



Technical info

Input File: 02. Quiet Room.mp3
Channels : 2
Sample Rate : 44100
Precision : 16-bit
Duration : 00:05:54.95 = 15653207 samples = 26621.1 CDDA sectors
File Size : 14.2M
Bit Rate : 320k
Sample Encoding: MPEG audio (layer I, II or III)
Comments :
Title=Quiet Room
Artist=Apocalyptic Society
Album=The Silent Extinction (EP)
Tracknumber=2
Year=2020
Genre=Death Metal



[ Hidden Text ]

Powered by Invision Power Board
© Invision Power Services