Printable Version of Topic

Click here to view this topic in its original format

Metal Area - Extreme Music Portal _ New Releases _ Trial By Combat - Consumed By The Darkness (2020)

Posted by: Samaritianin Nov 20 2020, 19:11:46

http://metalarea.org/images/audiocovers/2020_Nov/acov_tid344188.jpg

*Artist: Trial By Combat
*Album: Consumed By The Darkness
*Year: 2020
*Genre: Death/Thrash Metal
*Country: United States
*Format: mp3@CBR320kbps
*Size: 81MB

Tracklist:
1. Trial by Combat 03:44
2. Drumbeat of our Demise 03:00
3. God Delusion 02:58
4. Exsanguination Excite 04:38
5. Consumed by the Darkness 02:45
6. I Am Heathen 03:36
7. The Final Storm 02:49
8. Shapeshifter 04:02
9. Blood in the Sands 03:43
10. Sword of Glory (Motörhead cover) 03:46
******************************
Total playing time: 35:01

https://trialbycombat.bandcamp.com/
https://trialbycombat1.bandcamp.com/album/consumed-by-the-darkness
https://www.facebook.com/trialbycombat/

Extended info
Nathan Garlick Drums
Aaron Dudley Guitars
Jesse Palmer Guitars (lead)
See also: ex-USSR
Jesse Grossman Bass, Vocals (backing) (2008-present)
Dashiel McKenzie Vocals (lead) (2011-present)
See also: ex-Vindicate


Technical info

Input File: 08 - Shapeshifter.mp3
Channels : 2
Sample Rate : 44100
Precision : 16-bit
Duration : 00:04:01.88 = 10666952 samples = 18141.1 CDDA sectors
File Size : 9.83M
Bit Rate : 325k
Sample Encoding: MPEG audio (layer I, II or III)
Comments :
Title=Shapeshifter
Artist=Trial by Combat
Album=Consumed by the Darkness
Tracknumber=8
Year=2020



[ Hidden Text ]

Powered by Invision Power Board
© Invision Power Services