Printable Version of Topic

Click here to view this topic in its original format

Metal Area - Extreme Music Portal _ New Releases _ El Rojo - El Diablo Rojo (2020)

Posted by: vosmidesijatye Nov 20 2020, 20:32:06

http://metalarea.org/images/audiocovers/2020_Nov/acov_tid344193.jpg

*Artist: El Rojo
*Album: El Diablo Rojo
*Year: 2020
*Genre: Stoner Metal
*Country: Italy
*Format: mp3@CBR320kbps
*Size: 97MB

Tracklist:
1. South 04:29
2. El Camino 05:01
3. The Wanderer 04:30
4. Colors 07:13
5. Ascension 06:14
6. When I Slow Down 04:17
7. Cactus Bloom 06:27
8. Dragonfly 03:19
******************************
Total playing time: 41:30

https://elrojostoner.bandcamp.com/album/el-diablo-rojo

Technical info

Input File: 01. South.mp3
Channels : 2
Sample Rate : 44100
Precision : 16-bit
Duration : 00:04:29.55 = 11887111 samples = 20216.2 CDDA sectors
File Size : 11.1M
Bit Rate : 329k
Sample Encoding: MPEG audio (layer I, II or III)
Comments :
Title=South
Artist=El Rojo
Album=El Diablo Rojo
Tracknumber=1/8
Year=2020
Genre=Metal
Discnumber=1/1



[ Hidden Text ]

Powered by Invision Power Board
© Invision Power Services