Printable Version of Topic

Click here to view this topic in its original format

Metal Area - Extreme Music Portal _ New Releases _ Barbarian - Demo MMXX [demo] (2020)

Posted by: Panacea Nov 21 2020, 12:14:33

https://metalarea.org/images/audiocovers/2020_Nov/acov_tid344199.jpg

*Artist: Barbarian
*Album: Demo MMXX [demo]
*Year: 2020
*Genre: Death Metal
*Country: Australia
*Format: mp3@CBR320kbps
*Size: 43MB

Tracklist:
1. Chainsaw Cannibal 02:00
2. Hellseeker 01:23
3. Barbaric Bloodbath 02:23
4. Werewolf Colony 02:29
5. Axe-Wielding Maniac 02:58
6. King Of Rats 02:56
******************************
Total playing time: 14:09

https://barbariandeathmetal.bandcamp.com/album/demo-mmxx

Technical info

Input File: 02 - Hellseeker.mp3
Channels : 2
Sample Rate : 44100
Precision : 16-bit
Duration : 00:01:23.89 = 3699417 samples = 6291.53 CDDA sectors
File Size : 3.49M
Bit Rate : 332k
Sample Encoding: MPEG audio (layer I, II or III)
Comments :
Title=Hellseeker
Artist=Barbarian
Album=Demo MMXX
Tracknumber=2
Year=2020
Genre=Grindcore/Death Metal



[ Hidden Text ]

Powered by Invision Power Board
© Invision Power Services