Printable Version of Topic

Click here to view this topic in its original format

Metal Area - Extreme Music Portal _ New Releases _ Kalyot - The Harmonic Demise (2018)

Posted by: RotAnus Nov 21 2020, 12:34:51

https://metalarea.org/images/audiocovers/2020_Nov/acov_tid344203.jpg

*Artist: Kalyot
*Album: The Harmonic Demise
*Year: 2018
*Genre: Experimental Black/Death Metal
*Country: Poland
*Format: mp3@CBR320kbps
*Size: 95MB

Tracklist:
1. Scripta Obscura 00:47
2. Breed of the Witch of Endor 05:00
3. Ubiquus 04:25
4. Averting Death to Eternity 04:53
5. Those Masters I Hear 03:24
6. The Harmonic Demise 04:05
7. A Surgeon's Legacy 04:30
8. Sidera Funeral 04:41
9. The Gathering Bell 03:51
10. Apocrypha Illuminata 06:11
******************************
Total playing time: 41:47

https://kalyot.bandcamp.com/album/the-harmonic-demise

Technical info

Input File: 06 - The Harmonic Demise.mp3
Channels : 2
Sample Rate : 44100
Precision : 16-bit
Duration : 00:04:06.12 = 10853672 samples = 18458.6 CDDA sectors
File Size : 9.84M
Bit Rate : 320k
Sample Encoding: MPEG audio (layer I, II or III)
Comments :
Title=The Harmonic Demise
Artist=Kalyot
Album=The Harmonic Demise
Tracknumber=6
Year=2018
Genre=Metal



[ Hidden Text ]

Posted by: Vitald Dec 13 2020, 11:19:02

Картинка - экспериментальная. 1488.gif. Музыка - ни о чём.

Powered by Invision Power Board
© Invision Power Services