Printable Version of Topic

Click here to view this topic in its original format

Metal Area - Extreme Music Portal _ New Releases _ Stormruler - Under The Burning Eclipse (2020)

Posted by: Samaritianin Nov 21 2020, 12:36:52

http://metalarea.org/images/audiocovers/2020_Nov/acov_tid344204.jpg

*Artist: Stormruler
*Album: Under The Burning Eclipse
*Year: 2020
*Genre: Black Metal
*Country: United States
*Format: mp3@CBR320kbps
*Size: 141MB

Tracklist:
1. Shine of Ivory Horns
2. Reign of the Winged Duke
3. The March Onto Golden Lands
4. Age of Steel & Blood
5. Culling of the Blood Moon
6. Blood of the Old Wolf
7. Journey to the Unknown
8. Under the Burning Eclipse
9. Prithee, Chosen
10. Of Hollowed Souls & Distant Flame
11. An Empire of Ash & Dust
12. At the Cliffs of Azure City
13. Illuminating the Ancient Sky
14. Dawn of the Eternal Fire
15. A Message From a Foreign King
16. Mark of the Valkyrie
17. Blood Ritual
18. Fear the Old Blood
19. Fields of Mortal Shame
******************************
Total playing time: 1:00:23

https://stormruler.bandcamp.com/album/under-the-burning-eclipse
https://www.facebook.com/StormrulerSTL

Extended info
Commander - Guitars/Vocals
J. Schobel - Drums/Vocals
Session work:
Derek Engemann - Bass


Technical info

Input File: 06 - Blood of the Old Wolf.mp3
Channels : 2
Sample Rate : 44100
Precision : 16-bit
Duration : 00:05:48.31 = 15360427 samples = 26123.2 CDDA sectors
File Size : 14.1M
Bit Rate : 324k
Sample Encoding: MPEG audio (layer I, II or III)
Comments :
Title=Blood of the Old Wolf
Artist=Stormruler
Album=Under the Burning Eclipse
Tracknumber=6
Year=2020



[ Hidden Text ]

Posted by: isvili Nov 23 2020, 17:28:27

Очень не плохой альбом, единственное что не хватает это хорошей записи, немного жидковато получилось.
Гитарки настроены как у ранних Dissection & Necrophobic

Posted by: GoblinTracker3323 Nov 27 2020, 18:25:48

Posting strictly for awesome album art.

Powered by Invision Power Board
© Invision Power Services