Printable Version of Topic

Click here to view this topic in its original format

Metal Area - Extreme Music Portal _ New Releases _ Legendire - Sunchasers (2020)

Posted by: Samaritianin Nov 21 2020, 12:56:16

http://metalarea.org/images/audiocovers/2020_Nov/acov_tid344205.jpg

*Artist: Legendire
*Album: Sunchasers
*Year: 2020
*Genre: Power Metal
*Country: Russian Federation
*Format: mp3@CBR320kbps
*Size: 94MB

Tracklist:
1. Dawn of War
2. Sunchasers
3. Ravenheart
4. Meteor Rain
5. Inner Fire
6. Memories
7. Brave New World
8. The Last Song
9. Unite and Decide (Dragonforce Tribute)
******************************
Total playing time: 40:34

https://www.youtube.com/watch?v=AE-3f3qlfGU
https://www.youtube.com/watch?v=wCzkopoQrI8
https://www.facebook.com/legendire

Technical info

Input File: 05 - Inner Fire.mp3
Channels : 2
Sample Rate : 44100
Precision : 16-bit
Duration : 00:04:19.44 = 11441128 samples = 19457.7 CDDA sectors
File Size : 10.5M
Bit Rate : 324k
Sample Encoding: MPEG audio (layer I, II or III)
Comments :
Title=Inner Fire
Artist=Legendire
Album=Sunchasers
Tracknumber=5
Year=2020



[ Hidden Text ]

Posted by: AHBAnep Nov 22 2020, 06:21:18

https://music.yandex.ru/album/12819173
Неожиданно неплохо..

Posted by: Dreamtale Nov 23 2020, 10:58:42

Сыграно, очевидно, любителями павера 00-х для соответствующей аудитории. То бишь строго нишевый альбом. Мне зашло.

Posted by: Сварог Барг Nov 25 2020, 13:39:01

Инструментал хорош, вокалиста гнать в шею.

Posted by: zauber1 Dec 12 2020, 12:27:03

Превьюшки заинтересовали. Вроде, типичный павер, но звук жирный, без пластмассы. Вокалист, к слову, вполне нормальный, отторжения не вызывает, даже на английском неплохо поёт.

Posted by: Kitalter Jan 1 2021, 17:17:08

неплохой альбом) Достаточно качественно всё сыграно, да и звук хорош. И это всё несмотря на то, что Россия - экзотическая страна для Метал-музыки в целом.

Powered by Invision Power Board
© Invision Power Services