Printable Version of Topic

Click here to view this topic in its original format

Metal Area - Extreme Music Portal _ Archive _ Nordic Frost - Ad Inferna (2020)

Posted by: Samaritianin Nov 21 2020, 13:07:22

http://metalarea.org/images/audiocovers/2020_Nov/acov_tid344206.jpg

*Artist: Nordic Frost
*Album: Ad Inferna
*Year: 2020
*Genre: Symphonic Black/Death Metal
*Country: United States
*Format: mp3@CBR320kbps
*Size: 117MB

Tracklist:
1. Apocryphal Revelations (To Shed the Wings ov Enslavement) 01:37
2. Enlightenment in Obsolescence 04:19
3. Novus Golgotha 05:04
4. The Whore ov Babylon 06:38
5. Awaken the Ancients 05:28
6. To Drink from the Skulls ov Deities 06:34
7. As Black Ravens Descend 01:22
8. Was Retribution Not Enough? 04:39
9. Nordic Frost 05:05
10. To Wither and Die, a King 04:38
11. A Crown ov Thorns, a Throne ov Deceit 05:08
******************************
Total playing time: 50:32

https://nordicfrostmusic.bandcamp.com/album/ad-inferna
https://www.facebook.com/NordicFrostMusic/

Extended info
Kjell Drums
Brj√°nn Guitars, Keyboards, Vocals
See also: ex-Let This Die, In Lament, ex-Etched in Stone


Technical info

Input File: 06 - To Drink from the Skulls Ov Deities.mp3
Channels : 2
Sample Rate : 44100
Precision : 16-bit
Duration : 00:06:34.08 = 17378840 samples = 29555.9 CDDA sectors
File Size : 15.9M
Bit Rate : 322k
Sample Encoding: MPEG audio (layer I, II or III)
Comments :
Title=To Drink from the Skulls Ov Deities
Artist=Nordic Frost
Album=Ad Inferna
Tracknumber=6
Year=2020



[ Hidden Text ]

Powered by Invision Power Board
© Invision Power Services