Printable Version of Topic

Click here to view this topic in its original format

Metal Area - Extreme Music Portal _ New Releases _ Sammas' Equinox & Emanating Void - Temples Of Ice [split] (2020)

Posted by: smysl Nov 21 2020, 16:06:00

https://metalarea.org/images/audiocovers/2020_Nov/acov_tid344211.jpg

*Artist: Sammas' Equinox & Emanating Void
*Album: Temples Of Ice [split]
*Year: 2020
*Genre: Black Metal | Black Metal
*Country: Finland | Finland
*Format: mp3@CBR320kbps
*Size: 53MB

Tracklist:
Sammas' Equinox:
1.Glaciers in the Somber Night 06:58
Emanating Void:
2.Crystallized in Superiority 05:58
******************************
Total playing time: 12:56

https://sammasequinox.bandcamp.com/album/temples-of-ice

Extended info
7" vinyl, Signal Rex
+ scans


Technical info

Input File: 01 Sammas\' Equinox - Glaciers in the Somber Night.mp3
Channels : 2
Sample Rate : 44100
Precision : 16-bit
Duration : 00:06:58.17 = 18441209 samples = 31362.6 CDDA sectors
File Size : 16.9M
Bit Rate : 323k
Sample Encoding: MPEG audio (layer I, II or III)
Comments :
Title=Glaciers in the Somber Night
Artist=SAMMAS' EQUINOX
Album=Temples of Ice
Tracknumber=1
Year=2020
Genre=Black Metal



[ Hidden Text ]

Powered by Invision Power Board
© Invision Power Services