Printable Version of Topic

Click here to view this topic in its original format

Metal Area - Extreme Music Portal _ Archive _ Decedent - Kadotus [ep] (2020)

Posted by: smysl Nov 21 2020, 17:21:19

https://metalarea.org/images/audiocovers/2020_Nov/acov_tid344216.jpg

*Artist: Decedent
*Album: Kadotus [ep]
*Year: 2020
*Genre: Death Metal
*Country: Finland
*Format: mp3@CBR320kbps
*Size: 57MB

Tracklist:
1.Ihmishäkki 04:17
2.Verenkuiskaaja 03:38
3.Pahan Liittomaa 05:22
4.Saasteen Karsija 02:50
5.Uudet Luojat 04:13
6.Vihan Sola 03:59
******************************
Total playing time: 24:19

https://www.facebook.com/DECEDENT-113574883892528/?ref=page_internal
https://decedentband.bandcamp.com/album/kadotus
https://www.youtube.com/watch?v=eVK7g1n-CEc

Technical info

Input File: 01 Ihmishäkki.mp3
Channels : 2
Sample Rate : 44100
Precision : 16-bit
Duration : 00:04:17.47 = 11354427 samples = 19310.3 CDDA sectors
File Size : 10.4M
Bit Rate : 324k
Sample Encoding: MPEG audio (layer I, II or III)
Comments :
Title=Ihmishäkki
Artist=Decedent
Album=Kadotus
Tracknumber=1
Year=2020
Genre=Death Metal



[ Hidden Text ]

Powered by Invision Power Board
© Invision Power Services