Printable Version of Topic

Click here to view this topic in its original format

Metal Area - Extreme Music Portal _ New Releases _ Crotalus - The Practice Of Burial [ep] (2020)

Posted by: Samaritianin Nov 21 2020, 18:34:06

http://metalarea.org/images/audiocovers/2020_Nov/acov_tid344220.jpg

*Artist: Crotalus
*Album: The Practice Of Burial [ep]
*Year: 2020
*Genre: Death Metal
*Country: United States
*Format: mp3@CBR320kbps
*Size: 40MB

Tracklist:
01. Empire of Nothing
02. Human Butcher
03. Of Solace and Grief
04. The Practice of Burial
******************************
Total playing time: 17:11

https://crotalusdm.bandcamp.com/album/the-practice-of-burial

Technical info

Input File: 03. Of Solace and Grief.mp3
Channels : 2
Sample Rate : 44100
Precision : 16-bit
Duration : 00:04:18.68 = 11407832 samples = 19401.1 CDDA sectors
File Size : 10.5M
Bit Rate : 323k
Sample Encoding: MPEG audio (layer I, II or III)
Comments :
Title=Of Solace and Grief
Artist=Crotalus
Album=The Practice of Burial
Tracknumber=3
Year=2020
Discnumber=1/1



[ Hidden Text ]

Posted by: oathzine Nov 24 2020, 09:18:07

Flac

[ Hidden Text ]

Powered by Invision Power Board
© Invision Power Services