Printable Version of Topic

Click here to view this topic in its original format

Metal Area - Extreme Music Portal _ New Releases _ Porkavida - Todo Por Hacer (2000)

Posted by: SyncestrA Nov 21 2020, 20:24:28

https://metalarea.org/images/audiocovers/2020_Nov/acov_tid344224.jpg

*Artist: Porkavida
*Album: Todo Por Hacer
*Year: 2000
*Genre: Groove Metal
*Country: Spain
*Format: mp3@CBR320kbps
*Size: 117MB

Tracklist:
01. Obsesión 04:28
02. Caer al vacío 04:33
03. Cuestión de fe 03:27
04. Jugar a humano 05:16
05. Necesidad 03:27
06. El juego parecía fácil 04:01
07. Todo por hacer 04:46
08. Ira 04:25
09. Nada que objetar 04:52
10. Atrapados 05:15
11. Una respuesta más 06:24
******************************
Total playing time: 50:54

Extended info
Спектры, конечно, дерьмовые, но, полагаю, это единственная версия альбома в сети...


Technical info

Input File: 01 - obsesion.mp3
Channels : 2
Sample Rate : 44100
Precision : 16-bit
Duration : 00:04:28.04 = 11820564 samples = 20103 CDDA sectors
File Size : 10.8M
Bit Rate : 322k
Sample Encoding: MPEG audio (layer I, II or III)
Comments :
Title=Obsesion
Artist=Porkavida
Album=Todo Por Hacer
Tracknumber=1
Year=2000
Genre=Groove Metal



[ Hidden Text ]

Posted by: дивин Nov 22 2020, 15:03:06

Pantera на испанском.

Powered by Invision Power Board
© Invision Power Services