Printable Version of Topic

Click here to view this topic in its original format

Metal Area - Extreme Music Portal _ New Releases _ Unbegotten - Manifestion (2019)

Posted by: Абигор Nov 22 2020, 10:01:24

http://metalarea.org/images/audiocovers/2020_Nov/acov_tid344230.jpg

*Artist: Unbegotten
*Album: Manifestion
*Year: 2019
*Genre: Black Metal
*Country: Spain
*Format: mp3@VBR267kbps
*Size: 80MB

Tracklist:
1. Unbegotten 06:54
2. Memory & Misery 08:05
3. Ruined Existence, Cursed Heritage 06:13
4. If I Fall 05:47
5. Gradients Of Infinity 05:58
6. Abysses Of Existence 06:00
7. Dormancy 02:02
******************************
Total playing time: 40:59

https://www.youtube.com/watch?v=QCg8o08TBV8

Extended info
Altare Productions/Nebular Carcoma


Technical info

Input File: 01 Unbegotten.mp3
Channels : 2
Sample Rate : 44100
Precision : 16-bit
Duration : 00:06:54.35 = 18273011 samples = 31076.5 CDDA sectors
File Size : 13.8M
Bit Rate : 266k
Sample Encoding: MPEG audio (layer I, II or III)
Comments :
Title=Unbegotten
Artist=Unbegotten
Album=Manifestion
Tracknumber=01/7
Year=2019
Genre=Black Metal



[ Hidden Text ]

Powered by Invision Power Board
© Invision Power Services