Printable Version of Topic

Click here to view this topic in its original format

Metal Area - Extreme Music Portal _ New Releases _ Akolyytti - Transcendence - The Beast Within [ep] (2020)

Posted by: Velmi Nov 22 2020, 13:01:06

http://metalarea.org/images/audiocovers/2020_Nov/acov_tid344238.jpg

*Artist: Akolyytti
*Album: Transcendence - The Beast Within [ep]
*Year: 2020
*Genre: Black Metal
*Country: Finland
*Format: mp3@CBR320kbps
*Size: 26MB

Tracklist:
1. Lycanthropia - Hunting in the Shadows 04:09
2. Nocturnal Blood Ceremony 05:28
******************************
Total playing time: 9:37

https://akolyytti.bandcamp.com/album/trancendence-the-beast-within-ep

Extended info
Satanik Requiem


Technical info

Input File: 01. Lycanthropia - Hunting in the Shadows.mp3
Channels : 2
Sample Rate : 44100
Precision : 16-bit
Duration : 00:04:10.06 = 11027690 samples = 18754.6 CDDA sectors
File Size : 10.1M
Bit Rate : 323k
Sample Encoding: MPEG audio (layer I, II or III)
Comments :
Title=Lycanthropia - Hunting in the Shadows
Artist=Akolyytti
Album=Trancendence - The Beast Within
Tracknumber=01/02
Year=2020
Genre=Black metal



[ Hidden Text ]

Powered by Invision Power Board
© Invision Power Services