Printable Version of Topic

Click here to view this topic in its original format

Metal Area - Extreme Music Portal _ New Releases _ Graves Of The Abyss - Burial (2020)

Posted by: Andrew Nov 22 2020, 13:28:46

http://metalarea.org/images/audiocovers/2020_Nov/acov_tid344241.jpg

*Artist: Graves Of The Abyss
*Album: Burial
*Year: 2020
*Genre: Death/Black Metal
*Country: Canada
*Format: mp3@CBR320kbps
*Size: 90MB

Tracklist:
1. Burial 04:05
2. Can't Stop the Knife 04:30
3. Frost Warning 03:58
4. Saints of Eternal Swine 03:32
5. Dwellers 04:33
6. Slithering Fog 04:35
7. Blood Turns Black 04:25
8. Crucifixion Drain 09:25
******************************
Total playing time: 39:03

https://www.facebook.com/GravesOfTheAbyssPEI/
https://gravesoftheabyss.bandcamp.com/releases

Technical info

Input File: 02 - Can\'t Stop The Knife.mp3
Channels : 2
Sample Rate : 44100
Precision : 16-bit
Duration : 00:04:30.93 = 11948013 samples = 20319.8 CDDA sectors
File Size : 11.0M
Bit Rate : 326k
Sample Encoding: MPEG audio (layer I, II or III)
Comments :
Title=Can't Stop The Knife
Artist=Graves of the Abyss
Album=Burial
Tracknumber=2
Year=2020



[ Hidden Text ]

Powered by Invision Power Board
© Invision Power Services