Printable Version of Topic

Click here to view this topic in its original format

Metal Area - Extreme Music Portal _ New Releases _ Ruah - Wind [demo] (2021)

Posted by: Necrokilldozer Feb 21 2021, 17:47:31

http://metalarea.org/images/audiocovers/2021_Feb/acov_tid347657.jpg

*Artist: Ruah
*Album: Wind [demo]
*Year: 2021
*Genre: Atmospheric Black Metal
*Country: United States
*Format: mp3@CBR320kbps
*Size: 86MB

Tracklist:
1. Before the First Dawn 04:09
2. Wind 14:26
3. Homewards 06:10
4. ...and While I Was Still Mourning, the Gates of Eternity Were Shattered 00:32
5. Wind (Demo) 11:50
******************************
Total playing time: 37:07

https://ruah.bandcamp.com/releases

Technical info

Input File: 01. Before the First Dawn.mp3
Channels : 2
Sample Rate : 44100
Precision : 16-bit
Duration : 00:04:09.75 = 11013843 samples = 18731 CDDA sectors
File Size : 9.99M
Bit Rate : 320k
Sample Encoding: MPEG audio (layer I, II or III)
Comments :
Title=Before the First Dawn
Artist=Ruah
Album=Wind (Demo)
Tracknumber=1
Year=2021
Genre=Atmospheric Black Metal



[ Hidden Text ]

Powered by Invision Power Board
© Invision Power Services