Printable Version of Topic

Click here to view this topic in its original format

Metal Area - Extreme Music Portal _ New Releases _ Guldan - Überfahrt (2021)

Posted by: Funeral Frost Oct 12 2021, 20:32:35

http://metalarea.org/images/audiocovers/2021_Oct/acov_tid356649.jpg

*Artist: Guldan
*Album: Überfahrt
*Year: 2021
*Genre: Black Metal
*Country: Germany
*Format: mp3@CBR320kbps
*Size: 77MB

Tracklist:
1. Intro 01:14
2. Spiegelwelt 05:45
3. Rastlos 05:53
4. Die Ruhe vor dem Sturm 01:10
5. Gefecht 04:10
6. Windstille 06:05
7. Überfahrt 06:32
8. Outro 02:03
******************************
Total playing time: 32:52

https://guldan.bandcamp.com/album/berfahrt

Technical info

Input File: 05 - Gefecht.mp3
Channels : 2
Sample Rate : 44100
Precision : 16-bit
Duration : 00:04:10.03 = 11026499 samples = 18752.5 CDDA sectors
File Size : 10.2M
Bit Rate : 326k
Sample Encoding: MPEG audio (layer I, II or III)
Comments :
Title=Gefecht
Artist=Guldan
Album=Überfahrt
Tracknumber=05
Year=2021



[ Hidden Text ]

Posted by: rimfrost Oct 13 2021, 10:13:26


Posted by: judaz Oct 13 2021, 13:03:22

Абсолютная серость.

Posted by: Anarhist815 Oct 13 2021, 14:41:44

неатакующее, незловещее, кароче, кусок гомна с ПООХИМ качеством записе!!!!!!!!!!!!!

Posted by: witchfinder Oct 13 2021, 14:56:01

...Damn, who fahrted in here? It smells like FLAC...

[ Hidden Text ]

Posted by: Hexer Oct 13 2021, 17:45:59

Напомнило десятки и десятки несильно популярных немецких блэк групп, которые были активны в начале нулевых и сейчас даже и не вспомнишь, ни имен, ни названий альбомов. У Guldan все также банально, избито и малоинтересно как и у соотечественников.

Posted by: RUSP73 Oct 13 2021, 20:40:07

Такое впечатление, что ударные записали один раз и потом вставили во все песни. Не самый плохой музон, но пока еще совсем сырой

Powered by Invision Power Board
© Invision Power Services