Printable Version of Topic

Click here to view this topic in its original format

Metal Area - Extreme Music Portal _ Archive _ Aym - L'fí Shigionoth [compilation] (2019)

Posted by: Velmi Oct 24 2021, 07:35:49

http://metalarea.org/images/audiocovers/2021_Oct/acov_tid357165.jpg

*Artist: Aym
*Album: L'fí Shigionoth [compilation]
*Year: 2019
*Genre: Raw Black Metal
*Country: Finland
*Format: mp3@CBR320kbps
*Size: 82MB

Tracklist:
1. 7. Ps. 1 03:53
2. 7. Ps. 2 03:29
3. 7 Ps. 3 03:23
4. Mournful Ode 05:31
5. 9. Ps. 1 04:04
6. 9. Ps. 2 03:41
7. 9. Ps. 3 03:29
8. Quietus 06:17
******************************
Total playing time: 33:47

https://behest666.bandcamp.com/album/lf-shigionoth

Extended info
Behest, CD.


Technical info

Input File: 01. 7. Ps. 1.mp3
Channels : 2
Sample Rate : 44100
Precision : 16-bit
Duration : 00:03:53.29 = 10288221 samples = 17497 CDDA sectors
File Size : 9.39M
Bit Rate : 322k
Sample Encoding: MPEG audio (layer I, II or III)
Comments :
Title=7. Ps. 1
Artist=AYM
Album=L'fí Shigionoth
Tracknumber=01/08
Year=2019
Genre=Black Metal



[ Hidden Text ]

Powered by Invision Power Board
© Invision Power Services