Printable Version of Topic

Click here to view this topic in its original format

Metal Area - Extreme Music Portal _ Low Bitrate _ Necromonarchia Daemonum - Alter Mortem [demo] (2015)

Posted by: Абигор Jul 17 2019, 21:33:21

http://metalarea.org/images/audiocovers/2019_Jul/acov_tid324569.jpg

*Artist: http://metalarea.org/forum/index.php?showtopic=324572
*Album: Alter Mortem [demo]
*Year: 2015
*Genre: Black/Doom Metal
*Country: Finland
*Format: mp3@CBR320kbps
*Size: 28MB

Tracklist:
1. Apparition Beyond The Perceptible (Intro) 01:35
2. Dungeons Of The Dead Screeches 03:05
3. Citadel Of The Satans Spawn 02:48
4. Dead Moon Obeisance... (Outro) 04:35
******************************
Total playing time: 12:03

https://www.youtube.com/watch?v=SYRlQXBOmOU

Technical info

Input File: Necromonarchia Daemonum - 02 - Dungeons Of The Dead Screeches.mp3
Channels : 2
Sample Rate : 44100
Precision : 16-bit
Duration : 00:03:04.72 = 8146240 samples = 13854.1 CDDA sectors
File Size : 7.39M
Bit Rate : 320k
Sample Encoding: MPEG audio (layer I, II or III)
Comments :
Title=Dungeons Of The Dead Screeches
Artist=Necromonarchia Daemonum
Album=Alter Mortem
Tracknumber=02/04
Year=2015
Genre=Black Metal



[ Hidden Text ]

Posted by: maringlen Jul 20 2019, 17:37:35

really great stuff my friend

Powered by Invision Power Board
© Invision Power Services