Printable Version of Topic

Click here to view this topic in its original format

Metal Area - Extreme Music Portal _ Low Bitrate _ Blasphematory - Depths Of The Obscurity (2019)

Posted by: Samaritianin Dec 11 2019, 20:29:37

http://metalarea.org/images/audiocovers/2019_Dec/acov_tid331404.jpg

*Artist: Blasphematory
*Album: Depths Of The Obscurity
*Year: 2019
*Genre: Death Metal
*Country: United States
*Format: mp3@CBR320kbps
*Size: 82MB

Tracklist:
1. Intro 01:15
2. Martyr's Tears 03:33
3. Remains of the Despised 03:35
4. Furthest from Salvation 03:55
5. Depths of the Obscurity 05:05
6. The Old Book 04:03
7. Toward Rotten Death 04:40
8. Sepulchres Below 04:06
9. Pulled from the Beyond 05:25
******************************
Total playing time: 35:37

https://blasphematory.bandcamp.com/album/depths-of-the-obscurity-2

Extended info
Joe Aversario Bass, Guitars, Vocals
See also: Abazagorath, Altar of Gore, Burial Stone, Damnation Lust, Death Fortress, DSS, Eternal Fuzz, Jaws of Hades, Malefaction, Massive Retaliation, Senobyte, Siege Column, ex-Dethroned Emperor, ex-Misanthropy Legion, ex-Angelcide, ex-Northern Myst, ex-Necrofog, ex-Softdov, ex-Stressed Out
Chris Warhead Drums
See also: Abazagorath, Altar of Gore (live), ex-Warhead, ex-Bitter Peace, ex-Immolith, ex-Discordance Axis


Technical info

Input File: 05. Depths of the Obscurity.mp3
Channels : 2
Sample Rate : 44100
Precision : 16-bit
Duration : 00:05:05.18 = 13458526 samples = 22888.6 CDDA sectors
File Size : 12.3M
Bit Rate : 323k
Sample Encoding: MPEG audio (layer I, II or III)
Comments :
Title=Depths of the Obscurity
Artist=Blasphematory
Album=Depths of the Obscurity
Tracknumber=5
Year=2019
Genre=Death



[ Hidden Text ]

Posted by: Leshiy666 Dec 11 2019, 22:38:28

Добротный крепкий олдскул в духе 90-ых m0114.gif
Местами напомнило ранний штатовский Фюнебрарум, ранний финский Риппикоулу и ранний шведский Мундарк.

Posted by: sacrut Dec 11 2019, 22:49:30

does anyone know whether Blasphemathron is available to take for my own band. I'm afraid to stuck in a dispute with other people ... :-|

P/S/ music is good though

Posted by: AHBAnep Dec 12 2019, 08:11:11

Сборник, где они поучаствовали (non-album track) - https://nvnm.bandcamp.com/album/new-jersey-metal-attack-vol-4 - NYP

Powered by Invision Power Board
© Invision Power Services