Printable Version of Topic

Click here to view this topic in its original format

Metal Area - Extreme Music Portal _ Low Bitrate _ Ceifador - All Hell Breaking Loose (2020)

Posted by: Samaritianin Jan 15 2020, 23:00:24

http://metalarea.org/images/audiocovers/2020_Jan/acov_tid332678.jpg

*Artist: http://metalarea.org/forum/index.php?showtopic=270149
*Album: All Hell Breaking Loose
*Year: 2020
*Genre: Blackened Heavy/Thrash Metal
*Country: Brazil
*Format: mp3@CBR320kbps
*Size: 65MB

Tracklist:
1. All Hell Breaking Loose 04:04
2. Hell Sword 03:17
3. Wine of Blood 04:23
4. Gods of Evil 03:26
5. Eye of Devil 02:42
6. Rot in Oblivion 04:12
7. Morbid Dreams 02:42
8. Don't Pray for the Dead 03:10
******************************
Total playing time: 27:56

https://ceifador.bandcamp.com/
https://www.facebook.com/ceifadorband

Extended info
Zel√£o Drums
Mateus Tozzi Guitars
Clayton Maximinus Bass, Vocals (2003-present)
See also: ex-Alcoholikiller


Technical info

Input File: 03 - Wine of Blood.mp3
Channels : 2
Sample Rate : 44100
Precision : 16-bit
Duration : 00:04:23.12 = 11603724 samples = 19734.2 CDDA sectors
File Size : 10.6M
Bit Rate : 323k
Sample Encoding: MPEG audio (layer I, II or III)
Comments :
Title=Wine of Blood
Artist=CEIFADOR
Album=All Hell Breaking Loose
Tracknumber=3
Year=2020-01-15
Genre=Rock
Discnumber=1



[ Hidden Text ]

Powered by Invision Power Board
© Invision Power Services