Printable Version of Topic

Click here to view this topic in its original format

Metal Area - Extreme Music Portal _ Low Bitrate _ Necromancer - Complete Collection [compilation] (2014)

Posted by: Proteus_666 Jan 16 2020, 04:22:41

http://metalarea.org/images/audiocovers/2020_Jan/acov_tid332680.PNG

*Artist: Necromancer
*Album: Complete Collection [compilation]
*Year: 2014
*Genre: Thrash Metal
*Country: Finland
*Format: mp3@CBR128kbps
*Size: 69MB

Tracklist:
1. Downfall 05:37
2. Liquid Sky 05:18
3. Violence Show 03:44
4. Intruder 03:55
5. Days Of Fury 04:26
6. Death Blow 03:38
7. Ravaged 04:42
8. Rocka Rolla (Judas Priest cover) 03:23
9. Malicious Death II 02:04
10. Rapid Fire 03:09
11. Head Hunter 03:26
12. Malicious Death 02:52
13. Prolicide (Instrumental) 04:42
14. Enforced To Kill 03:33
15. Cross Of Hate 05:52
16. Intro - The Necromancer 02:36
17. Raising Werewolf 02:46
18. Enforced To Kill 03:14
19. Malicious Death 03:06
20. Battery (Metallica cover) 03:53
******************************
Total playing time: 1:15:56

Extended info
Self-released by the band:
01-02: "Downfall" Ep 1990
03-08: Demo III 1988
09-11: Demo II 1987
12-15: "Prolicide" Demo I 1987 (released as Necrotomic)
16-19: Unreleased Rehearsal 1986
20: Recorded in 1989


Technical info

Input File: 01-Downfall (1990).mp3
Channels : 2
Sample Rate : 44100
Precision : 16-bit
Duration : 00:05:37.77 = 14895569 samples = 25332.6 CDDA sectors
File Size : 5.44M
Bit Rate : 129k
Sample Encoding: MPEG audio (layer I, II or III)
Comments :
Title=Downfall (1990)
Artist=Necromancer
Album=Complete Collection
Tracknumber=01/20
Year=1986-1991
Genre=Speed/Thrash Metal
Discnumber=01/01



[ Hidden Text ]

Posted by: Proteus_666 Jan 16 2020, 10:40:27



link for this rehearsal (this recording didn't fit in the compilation):
[ Hidden Text ]

Powered by Invision Power Board
© Invision Power Services