Printable Version of Topic

Click here to view this topic in its original format

Metal Area - Extreme Music Portal _ Low Bitrate _ Evil One - Evil One [demo] (1990)

Posted by: Proteus_666 Aug 2 2020, 09:31:32

http://metalarea.org/images/audiocovers/2020_Aug/acov_tid340338.jpg

*Artist: Evil One
*Album: Evil One [demo]
*Year: 1990
*Genre: Heavy Metal
*Country: Italy
*Format: mp3@CBR320kbps
*Size: 37MB

Tracklist:
1. Tell Me Lord 07:47
2. Mirror 04:14
3. The Last Century 06:07
******************************
Total playing time: 18:08

Technical info

Input File: 02-Mirror.mp3
Channels : 2
Sample Rate : 44100
Precision : 16-bit
Duration : 00:04:14.20 = 11210220 samples = 19065 CDDA sectors
File Size : 10.2M
Bit Rate : 320k
Sample Encoding: MPEG audio (layer I, II or III)
Comments :
Title=Mirror
Artist=Evil One
Album=Evil One
Tracknumber=02
Year=1990
Genre=Metal



[ Hidden Text ]

Powered by Invision Power Board
© Invision Power Services