Printable Version of Topic

Click here to view this topic in its original format

Metal Area - Extreme Music Portal _ Unformat R: _ Rabia Sorda - The World Ends Today (2018)

Posted by: Metropolis May 9 2018, 15:42:25

https://metalarea.org/images/audiocovers/2018_May/acov_tid305735.jpg

*Artist: Rabia Sorda
*Album: The World Ends Today
*Year: 2018
*Genre: Dark Electro/Industrial
*Country: Mexico
*Format: mp3@CBR320kbps
*Size: 190MB

Tracklist:
01.TWET! 0:14
02.Perfect Black 4:28
03.So Slow It Hurts 4:41
04.Estás ahí? 1:20
05.Violent Love Song 4:00
06.We're not Machines 4:05
07.Estas Conmigo... 0:15
08.Shut Up and Dance! 3:52
09.Nobody 4:40
10.Dekadenz 4:14
11.Rebellion of The Wicked 4:07
12.The World Ends Today 4:19
13.Despierta 0:31
14.Møther 4:29
15.Don't Run! (The Evil Within) 3:28
16.Words in Scars 3:53
17.Перезвони Мне 0:16
18.Demolición 2:51
19.Explota! (La Bomba En Mi Cabeza) 5:49
20.Hasta Nunca... 3:12
21.Guten Morgen! 0:20
22.Dekadenz (Cypecore RMX) 4:04
23.Violent Love Song (Chemical Sweet Kid RMX) 3:56
24.We're not Machines (Nostalgic Machine / Cover Version by Prismatic Shapes) 3:24
25.Violent Love Song (72 hrs. Panic Attack Vitam non Mortem RMX) 3:51
******************************
Total playing time: 1:20:19

https://www.youtube.com/watch?time_continue=247&v=bLJAhselQ9g

Technical info

Input File: 02_-_Rabia_Sorda_-_Perfect_Black.mp3
Channels : 2
Sample Rate : 44100
Precision : 16-bit
Duration : 00:04:28.28 = 11831104 samples = 20120.9 CDDA sectors
File Size : 11.0M
Bit Rate : 329k
Sample Encoding: MPEG audio (layer I, II or III)
Comments :
Title=Perfect Black
Artist=Rabia Sorda
Album=The World Ends Today
Tracknumber=02/25
Year=2018



[ Hidden Text ]

Powered by Invision Power Board
© Invision Power Services