Printable Version of Topic

Click here to view this topic in its original format

Metal Area - Extreme Music Portal _ Unformat R: _ Mayhem - Gentle Murder [ep] (1982)

Posted by: canadaspaceman May 30 2019, 20:28:59

http://metalarea.org/images/audiocovers/2019_May/acov_tid322461.jpg

*Artist: Mayhem
*Album: Gentle Murder [ep]
*Year: 1982
*Genre: Punk
*Country: United Kingdom
*Format: mp3@CBR192kbps
*Size: 10MB

Tracklist:
1. Dogsbody 02:26
2. Street Fight 01:46
3. Blood Money 01:44
4. Patriots 01:17
******************************
Total playing time: 7:13

Extended info
http://strappadometalblog.blogspot.com/2009/12/mayhem-gentle-murder-ep-1982.html#axzz5pQWMSUR7

https://punkygibbon.co.uk/bands/m/mayhem_gentle.html

https://www.discogs.com/artist/263035-Mayhem-9


Technical info

Input File: 01 - Dogsbody.mp3
Channels : 2
Sample Rate : 44100
Precision : 16-bit
Duration : 00:02:26.00 = 6438600 samples = 10950 CDDA sectors
File Size : 3.53M
Bit Rate : 193k
Sample Encoding: MPEG audio (layer I, II or III)
Comments :
Title=Dogsbody
Artist=Mayhem
Album=Gentle Murder Ep 82
Tracknumber=01
Genre=NWOBHM



[ Hidden Text ]

Powered by Invision Power Board
© Invision Power Services