Printable Version of Topic

Click here to view this topic in its original format

Metal Area - Extreme Music Portal _ Unformat R: _ Black Rain - Dying Breed (2019)

Posted by: Necrokilldozer Sep 13 2019, 18:06:19

http://metalarea.org/images/audiocovers/2019_Sep/acov_tid327375.jpg

*Artist: Black Rain
*Album: Dying Breed
*Year: 2019
*Genre: Glam Rock
*Country: France
*Format: mp3@CBR320kbps
*Size: 111MB

Tracklist:
1.Dying Breed 03:50
2.Hellfire 04:05
3.Blast Me Up 03:40
4.Nobody Can Change 04:19
5.Like Me 03:44
6.All Angels Have Gone 04:11
7.We Are the Mayhem 03:31
8.Rock Radio 03:34
9.Public Enemy 03:58
10.A Call from the Inside 04:24
11.Jenny Jen 03:25
12.Ça plane pour moi 03:13
******************************
Total playing time: 45:54

https://blackfuckinrain.bandcamp.com/album/dying-breed

Extended info
Line - up:

Max 2 - Guitars
Swan - Vocals, Guitars
Heinrich - Bass
Frank F. Drums



Technical info

Input File: 01. Dying Breed.mp3
Channels : 2
Sample Rate : 44100
Precision : 16-bit
Duration : 00:03:50.76 = 10176296 samples = 17306.6 CDDA sectors
File Size : 9.30M
Bit Rate : 323k
Sample Encoding: MPEG audio (layer I, II or III)
Comments :
Title=Dying Breed
Artist=Black Rain
Album=Dying Breed
Tracknumber=1
Year=2019
Genre=Glam Rock



[ Hidden Text ]

Posted by: babanguida Sep 14 2019, 20:44:56

1488.gif


Posted by: babanguida Sep 14 2019, 21:30:13

QUOTE(adeptus_custodes @ Sep 14 2019, 22:24:11) *
Black rain это хорошее индастриал техно. А это какой-то Токио хотел

quite similar indeed

Powered by Invision Power Board
© Invision Power Services