Printable Version of Topic

Click here to view this topic in its original format

Metal Area - Extreme Music Portal _ Unformat R: _ Jaded Heart - Inside Out (1994)

Posted by: Maniakk Oct 31 2019, 06:26:12

http://metalarea.org/images/audiocovers/2019_Oct/acov_tid329566.jpg

*Artist: Jaded Heart
*Album: Inside Out
*Year: 1994
*Genre: Hard Rock
*Country: Germany
*Format: mp3@CBR320kbps
*Size: 129MB

Tracklist:
01. Inside Out 04:58
02. Mama 04:40
03. How Many Tears 04:38
04. Excuse 04:10
05. Hold On 04:42
06. Hard To Stay Alive 04:07
07. So Damn Easy 04:39
08. Listen 03:17
09. Won't Be Losin' 02:43
10. Burning For Love 04:59
11. Surrender 04:28
12. Take Me Back 03:58
13. Missing You 05:15
******************************
Total playing time: 56:34

Extended info
Bass Guitar – Michael Müller
Drums – Axel Kruse
Guitar – Dirk Bormann
Vocals – Michael Bormann


Technical info

Input File: 01.Inside Out.mp3
Channels : 2
Sample Rate : 44100
Precision : 16-bit
Duration : 00:04:56.56 = 13078340 samples = 22242.1 CDDA sectors
File Size : 11.9M
Bit Rate : 321k
Sample Encoding: MPEG audio (layer I, II or III)
Comments :
Title=Inside Out
Artist=Jaded Heart
Album=Inside Out
Tracknumber=1
Year=1994



[ Hidden Text ]

Powered by Invision Power Board
© Invision Power Services