Printable Version of Topic

Click here to view this topic in its original format

Metal Area - Extreme Music Portal _ Unformat R: _ Vrasësinerëzve - Demo Iii [demo] (2017)

Posted by: lestllk Nov 10 2019, 22:27:39

https://metalarea.org/images/audiocovers/2019_Nov/acov_tid330154.jpg

*Artist: Vrasësinerëzve
*Album: Demo Iii [demo]
*Year: 2017
*Genre: Dungeon Synth
*Country: Bosnia and Herzegovina
*Format: mp3@VBR248kbps
*Size: 75MB

Tracklist:
1. Untitled 02:51
2. Untitled 06:38
3. Untitled 06:49
4. Untitled 04:23
5. Untitled 05:08
6. Untitled 04:01
7. Untitled 11:52
******************************
Total playing time: 41:42

Extended info
Black Gangrene Productions

"Phantom maneuvers that foul the air and cast the utmost wretched specters of pure evil. Demo III calls forth from the nethermost abyss where the dissonant reverberations of delirious keys pervert the reality and affront warped revenants of splendid blackness and sibilant static. Vrasësinerëzve stands for sheer dismay of anything human. It bursts into its malformation and abhors the listener in uncontrollable horror during 45 minutes where the abyssic demeanor of the voiceless pieces cast an utterly unique background for pure unadulterated depravity."

Tape-rip by Zero


Technical info

Input File: 01 Untitled.mp3
Channels : 2
Sample Rate : 44100
Precision : 16-bit
Duration : 00:02:51.73 = 7573205 samples = 12879.6 CDDA sectors
File Size : 5.35M
Bit Rate : 249k
Sample Encoding: MPEG audio (layer I, II or III)
Comments :
Title=Untitled I
Artist=Vrasësinerëzve
Album=Demo III
Tracknumber=01/7
Year=2017
Discnumber=1/1



[ Hidden Text ]

Powered by Invision Power Board
© Invision Power Services