Printable Version of Topic

Click here to view this topic in its original format

Metal Area - Extreme Music Portal _ Unformat R: _ Faun - Marchen & Mythen (2019)

Posted by: necroscum Nov 14 2019, 13:46:45

http://metalarea.org/images/audiocovers/2019_Nov/acov_tid330304.jpg

*Artist: Faun
*Album: Marchen & Mythen
*Year: 2019
*Genre: Medieval Folk Rock
*Country: Germany
*Format: mp3@CBR320kbps
*Size: 148MB

Tracklist:
01. Es war einmal... 02:42
02. Rosenrot 03:35
03. Seemann 04:35
04. Hagazussa 04:59
05. Sieben Raben 04:33
06. Aschenbrodel 03:31
07. Die weisse Dame 04:44
08. Jorinde 03:55
09. Spieglein, Spieglein 03:43
10. Drei Wanderer (feat. Versengold) 03:16
11. Holla 06:22
12. The Lily 05:30
13. Falada 03:59
14. Thalia 04:30
15. Sieben Raben (Acoustic) 04:22
******************************
Total playing time: 1:04:16

https://www.facebook.com/FaunOfficial
https://www.youtube.com/watch?v=-_el0Jdq6H8&feature=emb_title

Technical info

Input File: 2 - Rosenrot.mp3
Channels : 2
Sample Rate : 44100
Precision : 16-bit
Duration : 00:03:34.82 = 9473386 samples = 16111.2 CDDA sectors
File Size : 8.66M
Bit Rate : 322k
Sample Encoding: MPEG audio (layer I, II or III)
Comments :
Title=Rosenrot
Artist=Faun
Album=Märchen & Mythen
Tracknumber=2
Year=2019
Genre=Pop
Discnumber=1



[ Hidden Text ]

Posted by: Dragonballz Nov 15 2019, 12:45:34

мда...
Что-то совсем не зашло по привью. Ну а новая вокалистка прям бесит.... пискля...
А ведь "мидгард" и "луну" заслушал до дыр.
Прям расстроился
6.gif

Posted by: скептик Nov 15 2019, 20:15:43

Dragonballz точно подмечено. такой faun нам не нужен.

Posted by: SSorcerer Nov 22 2019, 11:35:26

Очень слабо. С первыми альбомами даже рядом не стоит. К сожалению....

Powered by Invision Power Board
© Invision Power Services