Printable Version of Topic

Click here to view this topic in its original format

Metal Area - Extreme Music Portal _ Unformat R: _ Various Artists - Sonic Seducer: Cold Hands Seduction 214 [compilation] (2019)

Posted by: Sjelekval Jan 7 2020, 19:53:20

https://metalarea.org/images/audiocovers/2020_Jan/acov_tid332356.jpg

*Artist: Various Artists
*Album: Sonic Seducer: Cold Hands Seduction 214 [compilation]
*Year: 2019
*Genre: Various Gothic
*Country: Many
*Format: mp3@CBR320kbps
*Size: 110MB

Tracklist:
01. Leaves' Eyes - Serkland
02. Eden Weint Im Grab - Himmelsst├╝rmer
03. Heiter Bis Folkig - Saufen F├╝r Den Weltfrieden
04. Mills - Engel
05. Fractal Age - Not Yet
06. Tension Control - The World Is Going Down
07. DaGeist - Kiss Or Kill
08. On The Floor - Chain
09. Formicarius - Early Will I Seek Thee
10. Reichsfeind - Riots
11. Intent:Outtake - Singularity
******************************
Total playing time: 49:16

Technical info

Input File: 07 Kiss Or Kill.mp3
Channels : 2
Sample Rate : 44100
Precision : 16-bit
Duration : 00:03:47.78 = 10044966 samples = 17083.3 CDDA sectors
File Size : 9.27M
Bit Rate : 326k
Sample Encoding: MPEG audio (layer I, II or III)
Comments :
Title=Kiss Or Kill
Artist=DaGeist
Album=Cold Hands Seduction Vol. 214
Tracknumber=07/11
Year=2019
Genre=Darkwave



[ Hidden Text ]

Powered by Invision Power Board
© Invision Power Services