Printable Version of Topic

Click here to view this topic in its original format

Metal Area - Extreme Music Portal _ Unformat R: _ G.I.S.M - Detestation (1984)

Posted by: atom72 Jan 8 2020, 23:00:18

http://metalarea.org/images/audiocovers/2020_Jan/acov_tid332385.jpg

*Artist: G.I.S.M
*Album: Detestation
*Year: 1984
*Genre: Metal Punk
*Country: Japan
*Format: mp3@CBR320kbps
*Size: 68MB

Tracklist:
1. Endless Blockads For The Pussyfooter 1
2. Death Agohies And Screams
3. A.B.C. Weapons
4. Nih Nightmare
5. Document One
6. (Tere Their) Syphilitic Vaginas To Pieces
7. Nuclear Armed Hogs
8. Anthem
9. Hidden At 12 Min 49 Sec.
******************************
Total playing time: 1:06:00

https://www.youtube.com/watch?v=IztmJRegmCQ

Technical info

Input File: 01 Endless Blockades for the Pussyfooter 1.mp3
Channels : 2
Sample Rate : 44100
Precision : 16-bit
Duration : 00:03:45.68 = 9952400 samples = 16925.9 CDDA sectors
File Size : 9.06M
Bit Rate : 321k
Sample Encoding: MPEG audio (layer I, II or III)
Comments :
Title=Endless Blockades for the Pussyfooter
Artist=G.I.S.M.
Album=DeTesTaTioN
Tracknumber=1
Genre=PunkNotProfit



[ Hidden Text ]

Posted by: abob Jan 17 2020, 20:17:37

В 2015 вышла сборка Determination, в основном ее и слушаю, там этот альбом плюс треки с разных компиляций, иными словами самое крутое, что было у группы. Дальше по настроению.

Powered by Invision Power Board
© Invision Power Services