Printable Version of Topic

Click here to view this topic in its original format

Metal Area - Extreme Music Portal _ Unformat R: _ Quoit - Lounge (1996)

Posted by: as71 Jan 11 2020, 12:15:38

http://metalarea.org/images/audiocovers/2020_Jan/acov_tid332526.jpg

*Artist: Quoit
*Album: Lounge
*Year: 1996
*Genre: Drum & Bass/Illbient/Industrial
*Country: United Kingdom
*Format: mp3@CBR320kbps
*Size: 130MB

Tracklist:
01. Phoner 07:04
02. Chase 07:11
03. Wandering 08:24
04. That Way 07:02
05. Stranger 05:38
06. Set Up 05:47
07. Habit 08:27
08. Last Exit 07:42
******************************
Total playing time: 57:16

https://www.youtube.com/watch?v=XZlZI9b5oBs

Extended info
Еще один из проектов Мика Харриса, на этот раз драм'н'бэйсовой направленности.


Technical info

Input File: 01 - Phoner.mp3
Channels : 2
Sample Rate : 44100
Precision : 16-bit
Duration : 00:07:04.12 = 18703868 samples = 31809.3 CDDA sectors
File Size : 17.0M
Bit Rate : 320k
Sample Encoding: MPEG audio (layer I, II or III)
Comments :
Title=Phoner
Artist=Quoit
Album=Lounge
Tracknumber=01
Year=1996
Genre=Industrial/Illbient/Drum & Bass



[ Hidden Text ]

Powered by Invision Power Board
© Invision Power Services