Printable Version of Topic

Click here to view this topic in its original format

Metal Area - Extreme Music Portal _ Unformat R: _ Agenda - На Свет (2019)

Posted by: VLADISLAV_V_K Mar 16 2020, 17:11:39

http://metalarea.org/images/audiocovers/2020_Mar/acov_tid334996.jpg

*Artist: Agenda
*Album: На Свет
*Year: 2019
*Genre: Alternative/Atmospheric Rock/Punk
*Country: Russian Federation
*Format: mp3@CBR320kbps
*Size: 103MB

Tracklist:
01. Мёртвая вода 03:24
02. Ебанаты 05:04
03. Зазеркалье 05:10
04. На свет 07:57
05. Живая вода 03:51
06. Одной нитью 04:34
07. А нам с тобой 04:33
08. Когда поймёшь 03:38
09. Нет смерти 06:48
******************************
Total playing time: 44:59

https://music.yandex.ru/album/7341939
https://music.apple.com/ru/album/%D0%BD%D0%B0-%D1%81%D0%B2%D0%B5%D1%82/1460176533

Extended info
Состав:
Янис Георгиади - вокал, гитара
Алексей Георгиади - бас
Юрий "Герих" Шевченко - ударные, перкуссия, кахон


Technical info

Input File: 02-Ебанаты.mp3
Channels : 2
Sample Rate : 44100
Precision : 16-bit
Duration : 00:05:04.29 = 13419365 samples = 22822 CDDA sectors
File Size : 12.2M
Bit Rate : 320k
Sample Encoding: MPEG audio (layer I, II or III)
Comments :
Title=Ебанаты
Artist=Agenda
Album=На Свет
Tracknumber=2
Year=2019
Genre=Alternative Rock, Grunge



[ Hidden Text ]

Powered by Invision Power Board
© Invision Power Services