Printable Version of Topic

Click here to view this topic in its original format

Metal Area - Extreme Music Portal _ Unformat R: _ Pure Reason Revolution - Eupnea (2020)

Posted by: BlackTroll Apr 8 2020, 18:38:30

https://metalarea.org/images/audiocovers/2020_Apr/acov_tid336018.jpg

*Artist: Pure Reason Revolution
*Album: Eupnea
*Year: 2020
*Genre: Progressve Rock
*Country: United Kingdom
*Format: mp3@CBR320kbps
*Size: 113MB

Tracklist:
01. New Obsession 05:07
02. Silent Genesis 10:20
03. Maelstrom 05:44
04. Ghosts & Typhoons 08:46
05. Beyond Our Bodies 04:28
06. Eupnea 13:23
******************************
Total playing time: 47:48

Extended info








Technical info

Input File: 01 - New Obsession.mp3
Channels : 2
Sample Rate : 44100
Precision : 16-bit
Duration : 00:05:07.19 = 13547255 samples = 23039.5 CDDA sectors
File Size : 12.3M
Bit Rate : 321k
Sample Encoding: MPEG audio (layer I, II or III)
Comments :
Title=New Obsession
Artist=Pure Reason Revolution
Album=Eupnea
Tracknumber=01/6
Year=2020
Genre=Electronic;Rock
Discnumber=1/1



[ Hidden Text ]

Posted by: Ghostb Apr 9 2020, 15:17:53

Как раз хотел заценить, спасибо.

Posted by: Ghostb Apr 10 2020, 17:20:57

Классная группа, необычное смешение жанров, от синти-попа до прог-метала и альтернативы, но слушается гармонично. Сдвоенные вокальные партии тоже интересно построены, женский вообще нравится очень (где-то даже ассоциации с The Gathering были на уровне восприятия). Уже качаю предыдущие работы.

Posted by: Black Cat Apr 10 2020, 17:30:40

ЦИТАТА(Ghostb @ Apr 10 2020, 19:20:57) *
Уже качаю предыдущие работы.
Там дебютник в первую очередь надо ценить.

Posted by: Ghostb Apr 10 2020, 17:41:12

ЦИТАТА(Black Cat @ Apr 10 2020, 19:30:40) *
Там дебютник в первую очередь надо ценить

Да, я почитал немного) Но мне, в принципе, все могут быть по-своему интересны - люблю, когда банды экспериментируют.

Posted by: Snowblind Apr 10 2020, 17:55:25

Да, и им же можно из закончить, уровень музла после него сильно упал.

Posted by: Ghostb Apr 11 2020, 00:25:50

Black Cat, Snowblind, а новый как вам?

Posted by: atom72 Apr 11 2020, 00:44:12

Всегда были очень слабой группой, именно в плане запоминаемости материала - то самое "в одно ухо влетело из другого вылетело"

Posted by: Snowblind Apr 11 2020, 13:36:31

Как раз на первом всё с хуковостью более чем ОК. Новьё не слушал, закончу знакомиться с Шрёдером и заценю пропущенный ДедБайЭйприл, тогда заценю.

Posted by: Black Cat Apr 11 2020, 14:14:29

ЦИТАТА(Ghostb @ Apr 11 2020, 02:25:50) *
Black Cat, Snowblind, а новый как вам?

Пока не слушал, настроение неподходящее.
Ну и да, согласен, что после дебютника в разы слабее следующие.

Posted by: Ghostb Apr 11 2020, 14:16:55

Послушал дискографию - мне вообще все альбомы вкатили) Дебют как раз пока кажется самым непонятным, но зато есть потенциал для расслушивания. Но и там есть вещи, которые сразу зацепили.

ЦИТАТА(atom72 @ Apr 11 2020, 02:44:12) *
Всегда были очень слабой группой, именно в плане запоминаемости материала - то самое "в одно ухо влетело из другого вылетело"

Мне общий саунд нравится и построение вокальных партий. Да и не сказал бы, что хуков нет, особенно на втором и третьем альбомах.

Posted by: Quacksha Apr 11 2020, 14:22:58

QUOTE(Ghostb @ 11th April 2020 - 16:16:55) *
третьем альбомах.


Да третий альбом вообще самый простой для въезжания, но из-за этого и менее интересный. Ну и клубный душок там далеко не везде нравится, а вот новый прям сильно порадовал.

Powered by Invision Power Board
© Invision Power Services