Printable Version of Topic

Click here to view this topic in its original format

Metal Area - Extreme Music Portal _ Unformat R: _ Various Artists - Sonic Seducer: Cold Hands Seduction Vol. 218 [compilation] (2020)

Posted by: Sjelekval Jun 28 2020, 12:15:02



*Artist: Various Artists
*Album: Sonic Seducer: Cold Hands Seduction Vol. 218 [compilation]
*Year: 2020
*Genre: Various Gothic/Electro
*Country: Many
*Format: mp3@CBR320kbps
*Size: 170MB

Tracklist:
01. Paradise Lost - Fall From Grace
02. Die Kreatur - Mensch / Maschine
03. Near Earth Orbit - Critical Mass
04. Ehrenfeld feat. Felix Flaucher - Flowers Burn All Evil (Weed Remix)
05. Orange Sector - Zerstörer
06. Armageddon Dildos - Heut Nacht
07. Xotox - UFO
08. Alphamay - The Heir Of Eternity
09. Feline And Strange - Restart From Zero
10. minusheart. - They Shout
11. Avarice In Audio - Trojan Horse
12. Danheim - Kala
13. Welicoruss - Siberian Heathen Horde
14. Ocean Thief - Den Tredje Dagen (Edit)
15. Left Hand Black - Murder On My Mind
16. Megatherium - The Strength (Radio Edit)
17. Rome Burns - The Salamander
******************************
Total playing time: 1:15:40

Technical info

Input File: 02 Mensch - Maschine.mp3
Channels : 2
Sample Rate : 44100
Precision : 16-bit
Duration : 00:05:31.30 = 14610462 samples = 24847.7 CDDA sectors
File Size : 13.4M
Bit Rate : 323k
Sample Encoding: MPEG audio (layer I, II or III)
Comments :
Title=Mensch / Maschine
Artist=Die Kreatur
Album=Cold Hands Seduction Vol. 218
Tracknumber=02/17
Year=2020
Genre=50



[ Hidden Text ]

Powered by Invision Power Board
© Invision Power Services