Printable Version of Topic

Click here to view this topic in its original format

Metal Area - Extreme Music Portal _ Unformat R: _ David Reece - Cacophony Of Souls (2020)

Posted by: Andrew Jul 4 2020, 09:45:39

http://metalarea.org/images/audiocovers/2020_Jul/acov_tid339559.jpg

*Artist: David Reece
*Album: Cacophony Of Souls
*Year: 2020
*Genre: Hard'n'heavy
*Country: United States
*Format: mp3@CBR320kbps
*Size: 111MB

Tracklist:
1. Chasing the Shadows 03:44
2. Blood on Your Hands 03:17
3. Judgement Day 03:30
4. Collective Anaesthesia 05:22
5. Cacophony of Souls 03:57
6. Another Life Another Time 04:47
7. Metal Voice 03:27
8. Over and Over 03:46
9. Back in the Days 03:44
10. A Perfect World 05:07
11. Bleed 03:37
12. No Disguise 03:49
******************************
Total playing time: 48:07

https://www.facebook.com/David-Reece-Official-712460068855429/
https://www.youtube.com/watch?v=DUkMzhp0PCk
https://www.youtube.com/watch?v=USXymrnrhjQ
https://www.youtube.com/watch?v=NuRayIhqiUo

Extended info
David Reece Vocals
See also: Gypsy Rose, John Steel, ex-Sircle of Silence, Ez Livin', Reece-Kronlund, Sainted Sinners, ex-Accept, ex-Bonfire, ex-Malice, ex-PowerWorld, ex-Sacred Child, ex-Stream, ex-Bangalore Choir, ex-Dare Force, ex-Reece, ex-Tango Down

Line up:

Line-Up:
David Reece-voc.
Andy Susemihl-guitars
Malte Frederik Burkert-bass
Andrea Gianangeli-drums


Technical info

Input File: 02_david_reece_blood_on_your_hands.mp3
Channels : 2
Sample Rate : 44100
Precision : 16-bit
Duration : 00:03:16.82 = 8679762 samples = 14761.5 CDDA sectors
File Size : 8.02M
Bit Rate : 326k
Sample Encoding: MPEG audio (layer I, II or III)
Comments :
Title=Blood on Your Hands
Artist=Reece
Album=Cacophony of Souls
Tracknumber=2
Year=2020
Genre=Rock
Discnumber=1



[ Hidden Text ]

Posted by: Alexis The Best Aug 11 2020, 11:10:15

Andrew, 9.gif 9.gif 9.gif

Powered by Invision Power Board
© Invision Power Services