Printable Version of Topic

Click here to view this topic in its original format

Metal Area - Extreme Music Portal _ Unformat R: _ Titan To Tachyons - Cactides (2020)

Posted by: mirotvorets Sep 15 2020, 05:55:46

https://metalarea.org/images/audiocovers/2020_Sep/acov_tid341630.jpg

*Artist: Titan To Tachyons
*Album: Cactides
*Year: 2020
*Genre: Progressive Metal/Experimental Metal/Jazz/Instrumental
*Country: United States
*Format: mp3@CBR320kbps
*Size: 95MB

Tracklist:
1.Morphing Machineminds 05:53
2.The Starthinker is Obsolete 08:02
3.Tycho Magnetic 09:31
4.Earth, and Squidless 07:59
5.Everybody's Dead, Dave 09:30
******************************
Total playing time: 40:55

https://titantotachyons.bandcamp.com/album/cactides
https://www.youtube.com/watch?v=cpqHONbUwoA

Extended info
Sally Gates (ex-Gigan, Orbweaver) – Guitar
Matt Hollenberg (Cleric, John Zorn) – Bass VI
Kenny Grohowski (Imperial Triumphant, Thoren, Pyrrhon, Brand X, etc.) – Drums
+
Trevor Dunn (Mr. Bungle, Fantômas, Tomahawk, etc.) – Bass on “Everybody's Dead, Dave”


Technical info

Input File: 02. The Starthinker Is Obsolete.mp3
Channels : 2
Sample Rate : 44100
Precision : 16-bit
Duration : 00:08:02.35 = 21271811 samples = 36176.5 CDDA sectors
File Size : 20.1M
Bit Rate : 333k
Sample Encoding: MPEG audio (layer I, II or III)
Comments :
Title=The Starthinker Is Obsolete
Artist=Titan to Tachyons
Album=Cactides
Tracknumber=2
Year=2020



[ Hidden Text ]

Posted by: AHBAnep Sep 26 2020, 11:56:47

Занятная музыка
[ Hidden Text ]

Posted by: Ghostb Sep 27 2020, 21:15:40

Состав небезынтересен, надо заценить.

Posted by: Ghostb Sep 29 2020, 17:33:31

Ничего особенного, в общем-то, только третий трек цепанул - основной мотив там больно прилипчивый. Хотя, сыграно, конечно, здорово.

Powered by Invision Power Board
© Invision Power Services