Printable Version of Topic

Click here to view this topic in its original format

Metal Area - Extreme Music Portal _ Unformat R: _ Haryon & Thangorodrim - Under The Reign Of A New Power (Split) [split] (2018)

Posted by: Dreamtale Sep 19 2020, 12:15:55

http://metalarea.org/images/audiocovers/2020_Sep/acov_tid341760.jpg

*Artist: Haryon & Thangorodrim
*Album: Under The Reign Of A New Power (Split) [split]
*Year: 2018
*Genre: Dungeon Synth | Dungeon Synth
*Country: Germany | United States
*Format: mp3@CBR320kbps
*Size: 79MB

Tracklist:
1. Thangorodrim - Durin - The Deathless 9:12
2. Thangorodrim - Dimrill Dale - The Place of Shadowed Streams 8:55
3. Haryon - Thranduil - The King of Mirkwood 11:41
4. Haryon - Gondor - Amon Dîn 4:28
******************************
Total playing time: 34:16

https://haryon.bandcamp.com/releases

Technical info

Input File: Haryon - Thangorodrim-Haryon - Under the Reign of a New Power - 04 Haryon - Gondor - Amon Dîn.mp3
Channels : 2
Sample Rate : 44100
Precision : 16-bit
Duration : 00:04:28.08 = 11822460 samples = 20106.2 CDDA sectors
File Size : 10.8M
Bit Rate : 323k
Sample Encoding: MPEG audio (layer I, II or III)
Comments :
Title=Haryon - Gondor - Amon Dîn
Artist=Haryon
Album=Thangorodrim/Haryon - Under the Reign of a New Power
Tracknumber=4
Year=2018



[ Hidden Text ]

Posted by: Dreamtale Sep 19 2020, 17:35:05

FLAC
[ Hidden Text ]

Posted by: vosmidesijatye Sep 19 2020, 17:43:03

Thangorodrim - один из топовейших современных данж синт проектов. pray.gif

Posted by: INDARKNESS Sep 19 2020, 18:33:42

ЦИТАТА(vosmidesijatye @ Sep 19 2020, 17:43:03) *
Thangorodrim - один из топовейших современных данж синт проектов. pray.gif
ну ну одноглазый король в королевстве слепых.твой топ самнабулический как и дум и все остальное.

Posted by: Vitald Sep 22 2020, 13:26:42

Феерическая куета.

Powered by Invision Power Board
© Invision Power Services