Printable Version of Topic

Click here to view this topic in its original format

Metal Area - Extreme Music Portal _ Unformat R: _ Spine Wrench - Spine Wrench [ep] (1994)

Posted by: YBergen Jan 18 2022, 16:58:57

https://metalarea.org/images/audiocovers/2022_Jan/acov_tid360639.jpg

*Artist: Spine Wrench
*Album: Spine Wrench [ep]
*Year: 1994
*Genre: Industrial Metal
*Country: United Kingdom
*Format: mp3@CBR256kbps
*Size: 31MB

Tracklist:
01. Soulscape 04:25
02. Body Socket 05:23
03. Black Eye Burnout 08:30
******************************
Total playing time: 18:18

Technical info

Input File: Spine Wrench - Soulscape.mp3
Channels : 2
Sample Rate : 44100
Precision : 16-bit
Duration : 00:04:26.03 = 11731967 samples = 19952.3 CDDA sectors
File Size : 8.51M
Bit Rate : 256k
Sample Encoding: MPEG audio (layer I, II or III)
Comments :
Title=Soulscape
Artist=Spine Wrench
Album=Spine Wrench
Tracknumber=1
Year=1994
Genre=Industrial Metal



[ Hidden Text ]

Posted by: Hell_Is_Here Jan 24 2022, 06:13:27


Powered by Invision Power Board
© Invision Power Services