Printable Version of Topic

Click here to view this topic in its original format

Metal Area - Extreme Music Portal _ Lossless _ Armia - Triodante (1994)

Posted by: icingsugar Apr 25 2013, 13:18:22

http://metalarea.org/images/audiocovers/2013_Apr/acov_tid199556.jpg

*Artist: Armia
*Album: Triodante
*Year: 1994
*Genre: Symphonic Punk Rock/Progressive Rock
*Country: Poland
*Format: mp3@CBR320kbps
*Size: 150MB

Tracklist:
1. Wyludniacz 06:19
2. Popioły 06:30
3. Nieruchomo 07:17
4. Miejsce pod słońcem 10:40
5. Dzyń 03:42
6. Ciało i duch 04:54
7. Pieśń przygodna 06:18
8. Piosenka liczb 02:51
9. Święto jaskółki 05:57
10. Skończyłem rozpoczynaj 07:54
******************************
Total playing time: 1:02:22

http://youtu.be/1xyn77m5GF0
http://youtu.be/8nWMa0BeN6o

Extended info
Adaptation of The Divine Comedy (Italian: Divina Commedia) an epic poem written by Dante Alighieri between c. 1308 and his death in 1321.


Technical info

Input File: 05 - Dzyn.mp3
Channels : 2
Sample Rate : 44100
Precision : 16-bit
Duration : 00:03:42.12 = 9795624 samples = 16659.2 CDDA sectors
File Size : 8.89M
Bit Rate : 320k
Sample Encoding: MPEG audio (layer I, II or III)
Comments :
Title=DzyЕ„
Artist=Armia
Album=Triodante
Tracknumber=5
Year=1994
Genre=General Punk
Discnumber=1/1



[ Hidden Text ]

Posted by: Borderline1991 Feb 11 2020, 09:24:01

[ Hidden Text ]
[ Hidden Text ]

Powered by Invision Power Board
© Invision Power Services