Printable Version of Topic

Click here to view this topic in its original format

Metal Area - Extreme Music Portal _ Lossless _ Maveth & Embrace Of Thorns - A Plague Through The Heavens [split] (2014)

Posted by: Samaritianin Aug 17 2014, 02:41:28

http://metalarea.org/images/audiocovers/2014_Aug/acov_tid228830.jpg

*Artist: Maveth & http://metalarea.org/forum/index.php?showtopic=92367
*Album: A Plague Through The Heavens [split]
*Year: 2014
*Genre: Black/Death Metal | Black/Death Metal
*Country: Finland | Greece
*Format: mp3@CBR320kbps
*Size: 84MB

Tracklist:
Maveth:
1. Introduction 01:54
2. The Call Of The Lord I - The Adversary 05:56
3. The Call Of The Lord II - The Way 06:04
4. Grail Of Bloodshed 05:49
Embrace Of Thorns:
5. Conqueror Of Mortality 05:42
6. Sempiternally Cursing The Weak 02:30
7. The Pits Of Strife 04:20
8. More Men, Less Axioms 05:06
******************************
Total playing time: 37:21

http://darkdescentrecords.bandcamp.com/album/a-plague-through-the-heavens

Technical info

Input File: 02. The Call Of The Lord I - The Adversary.mp3
Channels : 2
Sample Rate : 44100
Precision : 16-bit
Duration : 00:05:56.66 = 15728706 samples = 26749.5 CDDA sectors
File Size : 14.3M
Bit Rate : 320k
Sample Encoding: MPEG audio (layer I, II or III)
Comments :
Title=The Call Of The Lord I - The Adversary
Artist=Maveth
Album=A Plague Through The Heavens
Tracknumber=2
Year=2014
Genre=Death Metal
Discnumber=1



[ Hidden Text ]

Posted by: shitsic Sep 3 2014, 04:43:40

Maveth понравился.

Posted by: kupiszcze Oct 1 2019, 10:06:04

Reupload!

Posted by: Borderline1991 Oct 5 2019, 16:28:33

[ Hidden Text ]

Powered by Invision Power Board
© Invision Power Services