Printable Version of Topic

Click here to view this topic in its original format

Metal Area - Extreme Music Portal _ Lossless _ Profanation - Into Cascades Of Blood And Burning Soil (2019)

Posted by: necroscum Apr 25 2019, 12:43:17

https://metalarea.org/images/audiocovers/2019_Apr/acov_tid320988.jpg

*Artist: Profanation
*Album: Into Cascades Of Blood And Burning Soil
*Year: 2019
*Genre: Death Metal/Grindcore
*Country: Germany
*Format: mp3@CBR320kbps
*Size: 122MB

Tracklist:
01. Incantation 02:13
02. Into Cascades of Blood and Burning Soil 05:33
03. Seed of Evil 05:34
04. Silent God 05:16
05. Bloodbath in Heaven 05:06
06. Der Gemu╠łtliche 06:27
07. Unholy Brutality Unleashed 05:20
08. The Prophecy 05:13
09. Butcher's Joy 05:58
10. A Place to Pray - Ablaze for Prey 06:57
******************************
Total playing time: 53:37

http://myspace.com/profanationdeathgrind
http://www.facebook.com/ProfanationDeathGrind
http://www.reverbnation.com/profanation
https://profanation.bandcamp.com/album/into-cascades-of-blood-and-burning-soil
https://www.youtube.com/watch?v=XdhpL2a_xKU

Technical info

Input File: 2 - Into Cascades of Blood and Burning Soil.mp3
Channels : 2
Sample Rate : 44100
Precision : 16-bit
Duration : 00:05:21.32 = 14170344 samples = 24099.2 CDDA sectors
File Size : 12.9M
Bit Rate : 322k
Sample Encoding: MPEG audio (layer I, II or III)
Comments :
Title=Into Cascades of Blood and Burning Soil
Artist=Profanation
Album=Into Cascades of Blood and Burning Soil
Tracknumber=2
Year=2019
Genre=Alternative/Indie Rock/Metal
Discnumber=1



[ Hidden Text ]

Posted by: Andrew Apr 25 2019, 22:14:37

[ Hidden Text ]

Posted by: oathzine Apr 26 2019, 11:20:51

Flac

[ Hidden Text ]

Powered by Invision Power Board
© Invision Power Services