Printable Version of Topic

Click here to view this topic in its original format

Metal Area - Extreme Music Portal _ Lossless _ Blackguard - Storm (2020)

Posted by: Samaritianin Jan 2 2020, 12:25:25

http://metalarea.org/images/audiocovers/2020_Jan/acov_tid332135.jpg

*Artist: Blackguard
*Album: Storm
*Year: 2020
*Genre: Folk/Melodic Death Metal
*Country: Canada
*Format: mp3@CBR320kbps
*Size: 112MB

Tracklist:
1. By My Hand
2. To Ashes Return
3. Northern Storm
4. The Hunted
5. In Dreams
6. Mourning Star
7. Clouds
8. A Dying Season
9. Visions (Of Blood and Gold)
10. ...Of Threads and Fate
******************************
Total playing time: 48:42

https://blackguardmtl.bandcamp.com/album/storm
https://www.facebook.com/blackguardband/

Extended info
Justine Ethier Drums (2008-present)
See also: Karkaos, ex-Profugus Mortis, Antiqva
Terry Roadcase Guitars (2008-present)
See also: ex-Myrkal, ex-Profugus Mortis
Paul Ablaze Vocals (2008-present)
See also: Conflux, ex-Profugus Mortis, Ages, ex-Crimson Shadows, ex-Endast, ex-Bring It Back, ex-Take Their Lives
Louis Jacques Guitars (2012-present)
See also: Jericho, ex-Bleeding Sky, ex-Kemilon, ex-Unhuman, ex-Living by Death, ex-Korpius (live)


Technical info

Input File: 3 - Northern Storm.mp3
Channels : 2
Sample Rate : 44100
Precision : 16-bit
Duration : 00:04:50.42 = 12807478 samples = 21781.4 CDDA sectors
File Size : 11.7M
Bit Rate : 322k
Sample Encoding: MPEG audio (layer I, II or III)
Comments :
Title=Northern Storm
Artist=Blackguard
Album=Storm
Tracknumber=3
Year=2020
Genre=Metal
Discnumber=1



[ Hidden Text ]

Posted by: Ingvar Jan 2 2020, 15:56:17

113 mb/320 kbps
[ Hidden Text ]

Posted by: MeatWolf Jan 2 2020, 16:05:17

Лет 5-6 назад было бы интересно, сейчас послушал и вообще ничего не запомнил.

Posted by: Oath19 Jan 3 2020, 15:06:57

ЦИТАТА(MeatWolf @ Jan 2 2020, 20:05:17) *
Лет 5-6 назад было бы интересно, сейчас послушал и вообще ничего не запомнил.

Тогда пожалуй и качать не буду smile1.gif

Posted by: Andrew Jan 3 2020, 21:31:19

ЦИТАТА(MeatWolf @ Jan 2 2020, 19:05:17) *
Лет 5-6 назад было бы интересно

А точнее 9 лет назад. Второй альбом был очень даже! А новый опус после первой прослушки как то..... Подзатянули музыканты с выпуском нового альбома. Не впечатлил вообще материал.

Posted by: tt2008 Jan 3 2020, 23:26:12

Thanks dwarf-1.gif

Posted by: VLADISLAV_V_K Jan 7 2020, 12:00:11

FLAC tracks
[ Hidden Text ]

Posted by: DenisKov Jan 16 2020, 09:41:22

Третьесорт.

Posted by: BleedingSun Jan 16 2020, 10:35:26

ЦИТАТА(DenisKov @ Jan 16 2020, 10:41:22) *
Третьесорт.

Зашёл только ради этого коммента crazy.gif 9.gif

Posted by: Cronopio Jan 16 2020, 20:44:24

Thanks.

Powered by Invision Power Board
© Invision Power Services