Printable Version of Topic

Click here to view this topic in its original format

Metal Area - Extreme Music Portal _ Low Bitrate Archive (read only) _ Moonreich - Terribilis Est Locust Iste (2013)

Posted by: Samaritianin Jul 26 2013, 02:55:20

http://metalarea.org/images/audiocovers/2013_Jul/acov_tid205313.jpg

*Artist: Moonreich
*Album: Terribilis Est Locust Iste
*Year: 2013
*Genre: Black Metal
*Country: France
*Format: mp3@CBR320kbps
*Size: 132MB

Tracklist:
01.Terribilis Est Locust Iste 08:33
02.Bright Morning Star 07:19
03.Oppressive Light 02:57
04.Chant For A Darkened Gospel 03:57
05.The Serpent Presaging Sinister 04:43
06.Cursed The Day,Hailed The Night 06:20
07.Nos Conspuere In Vobis 05:01
08.Hidden Mystical World 09:57
09.And A Star Fell At The Fifth Sound 09:19
******************************
Total playing time: 58:06

http://www.metal-archives.com/albums/Moonreich/Terribilis_Est_Locus_Iste/375406
https://myspace.com/moonreichmusic

Extended info
В ЛОУ


Technical info

Input File: 01-moonreich-terribilis_est_locus_iste.mp3
Channels : 2
Sample Rate : 44100
Precision : 16-bit
Duration : 00:08:33.80 = 22658492 samples = 38534.9 CDDA sectors
File Size : 20.6M
Bit Rate : 320k
Sample Encoding: MPEG audio (layer I, II or III)
Comments :
Title=Terribilis Est Locus Iste
Artist=Moonreich
Album=Terribilis Est Locus Iste
Tracknumber=1
Year=2013
Genre=Black Metal



[ Hidden Text ]

Posted by: ultimate_satanic_ass Jul 26 2013, 10:52:36

1000

pray.gif

!

Posted by: rimfrost Jul 26 2013, 11:06:00




Powered by Invision Power Board
© Invision Power Services