Welcome Guest ( Log In | Register )

История благодарностей участнику maringlen ::: Спасибо сказали: 2097 раз(а)
Дата поста: В теме: За сообщение: Спасибо сказали:
May 9 2020, 16:35:14 Goatmoon - Demo 2 [demo] (2002)
thank you very much f 20.gif or Goatmoon demos
(2) dermarsoran, infiltrator,
Sep 1 2019, 07:27:15 Nordreich - Blutstarre (2018)
many thanks for this
(1) dermarsoran,
Aug 6 2019, 16:49:14 Egoism - Demo II [demo] (2014)
rawwwwwwwwwwwwwwwwwww true_black.gif
(1) dim0ntius,
Aug 4 2019, 11:15:44 Funeral - Black Flame Of Unholy Hate [compilation] (2017)
the french cult is alive
(2) infiltrator, wolverine,
Mar 4 2019, 15:55:12 Sale Freux - Trouvère À Heures Perdues (2018)
french cult is back
(2) Alexis The Best, featb,
Feb 22 2019, 16:46:33 Mons Veneris - Maléficas Destruições Satânicas [ep] (2018)
great release.thank you
(1) obituarydark,
Jan 15 2019, 20:41:31 Darkstorm - Voices From The Vast Void [ep] (2017)
Polish Black Metal at its best
(3) obituarydark, Ostinato, Wotanwatch,
Oct 27 2018, 08:01:27 Malicious Secrets - Demo 1999 [demo] (1999)
RIGHT true_black.gif
(2) Occultas, thenecromancer,
May 31 2018, 14:26:16 Furfur - Le silence après la mort (2018)


*Artist: Furfur
*Album: Le silence après la mort
*Year: 2018
*Genre: Raw Black Metal
*Country: France
*Format: mp3@CBR128kbps
*Size: 38MB

Tracklist:
1.Hiver Morbide (Intro) 01:06
2.Souffrance 03:46
3.Avant la Destruction 03:15
4.Mes Ailes 01:40
5.Ce Foutu Corbeau 02:46
6.Le Silence Après la Mort 04:04
7.Misanthropie 4 02:33
8.Enfouis Sous un Tas de Neige 04:45
9.Horde Noire 02:19
10.La Foudre de la Vérité 03:32
11.Après la Destruction 02:49
12.Seul 02:21
13.Six-Cents-Soixante-Six 02:20
14.Suprême Mélancholie 03:12
15.La Nuit des Rats 01:25
******************************
Total playing time: 41:53



[more=Technical info]
Input File: 2 - Souffrance.mp3
Channels : 2
Sample Rate : 44100
Precision : 16-bit
Duration : 00:03:46.54 = 9990458 samples = 16990.6 CDDA sectors
File Size : 3.63M
Bit Rate : 128k
Sample Encoding: MPEG audio (layer I, II or III)
Comments :
Title=Souffrance
Artist=Furfur
Album=Le Silence AprГЁs la Mort
Tracknumber=2/15

[/more]

Register
(11) 1968_janeart, artscald, blackwerwolf, dermarsoran, judaz, kim666, MortSathynr, Rosen, satanist666, varg-38ru, vasiljev_sergej,
May 29 2018, 14:12:25 Brahdr'Uhz & Trefihrat - Celebration Of The Blasphemous Black Mass [split] (2018)


*Artist: Brahdr'Uhz & Trefihrat
*Album: Celebration Of The Blasphemous Black Mass [split]
*Year: 2018
*Genre: Raw Black Metal | Raw Black Metal
*Country: Switzerland | Germany
*Format: mp3@CBR128kbps
*Size: 25MB

Tracklist:
1.Brahdr'uhz - Svthnk rtvhl hbvse hysterh 03:16
2.Brahdr'uhz - N lehgve wh the Devl 04:11
3.Brahdr'uhz - Phphs of Herhplis 02:29
4.Brahdr'uhz - Rver f rd sehent 05:03
5.Trefihrat - Menschen 05:07
6.Trefihrat - Miliz 03:15
7.Trefihrat - Schwarzwinter 04:04
******************************
Total playing time: 27:25




[more=Technical info]
Input File: 3 - 03 Brahdr'uhz - Phphs of Herhplis.mp3
Channels : 2
Sample Rate : 44100
Precision : 16-bit
Duration : 00:02:29.45 = 6590789 samples = 11208.8 CDDA sectors
File Size : 2.39M
Bit Rate : 128k
Sample Encoding: MPEG audio (layer I, II or III)
Comments :
Title=03 Brahdr'uhz - Phphs of Herhplis
Artist=trefihrat
Album=Celebration of the blasphemous black mass
Tracknumber=3/7

[/more]


 ! 

Tracklist 21.gif
 


Register
(5) artscald, kim666, morbidangelo, piledriver, satanist666,
May 13 2018, 13:54:35 Behemoth - Promo-Tape '93 [demo] (1993)
THANK YOU FOR THIS RARE GEM
(1) Wail,
Apr 30 2018, 14:47:56 Der Gefallene - Act One - Fire [ep] (2018)


*Artist: Der Gefallene
*Album: Act One - Fire [ep]
*Year: 2018
*Genre: Raw Black Metal
*Country: Germany
*Format: mp3@VBR240kbps
*Size: 40MB

Tracklist:
1.Solnedgang (Sonnenuntergang) 00:35
2.Predator of This World 05:40
3.For Dawn They Will Never See 06:10
4.Flammentanz 03:55
******************************
Total playing time: 16:20



[more=Technical info]
Input File: Der Gefallene - Act One - Fire - 02 Predator of This World.mp3
Channels : 2
Sample Rate : 44100
Precision : 16-bit
Duration : 00:05:40.77 = 15027825 samples = 25557.5 CDDA sectors
File Size : 12.0M
Bit Rate : 282k
Sample Encoding: MPEG audio (layer I, II or III)
Comments :
Title=Predator of This World
Artist=Der Gefallene
Album=Act One - Fire
Tracknumber=2
Year=2018

[/more]

Register
(9) 1968_janeart, kim666, obituarydark, Rosen, satanist666, SilentNidhogg, stub888, varg-38ru, vasiljev_sergej,
Apr 17 2018, 19:17:44 Fuck Beherit - Do Beherit [demo] (1992)
new link please?
(1) Weltenfeind666,
Apr 10 2018, 20:36:32 Plutonian Shore - Alpha Et Omega [ep] (2018)


*Artist: Plutonian Shore
*Album: Alpha Et Omega [ep]
*Year: 2018
*Genre: Black Metal
*Country: United States
*Format: mp3@CBR256kbps
*Size: 28MB

Tracklist:
1.VOSA 05:44
2.AEO 04:31
3.IAI 04:13
******************************
Total playing time: 14:28




[more=Technical info]
Input File: Plutonian Shore - Alpha et Omega - 03 IAI.mp3
Channels : 2
Sample Rate : 44100
Precision : 16-bit
Duration : 00:04:13.54 = 11181290 samples = 19015.8 CDDA sectors
File Size : 8.70M
Bit Rate : 275k
Sample Encoding: MPEG audio (layer I, II or III)
Comments :
Title=IAI
Artist=Plutonian Shore
Album=Alpha et Omega
Tracknumber=3
Year=2018

[/more]

Register
(14) 1968_janeart, Daale, Hell_Is_Here, Ildjarn, Immortality, kim666, Razorbladeswaltz, Rosen, satanist666, serach, SilentNidhogg, VALERY, varlam4, vasiljev_sergej,
Apr 7 2018, 10:05:43 Verwulf Tyrant - .​.​.​From The Shadows​.​.​. [demo] (2018)


*Artist: Verwulf Tyrant
*Album: .​.​.​From The Shadows​.​.​. [demo]
*Year: 2018
*Genre: Black Metal
*Country: United States
*Format: mp3@CBR128kbps
*Size: 27MB

Tracklist:
1.Rituals of Transformation 06:51
2.The Great Chimney 11:02
3.Subjugate the Androgynous Whores 07:28
4.The Fall of Another Democracy 05:19
******************************
Total playing time: 30:40



[more=Technical info]
Input File: 2 - The Great Chimney.mp3
Channels : 2
Sample Rate : 44100
Precision : 16-bit
Duration : 00:11:02.56 = 29218896 samples = 49692 CDDA sectors
File Size : 10.6M
Bit Rate : 128k
Sample Encoding: MPEG audio (layer I, II or III)

[/more]

Register
(7) blackwerwolf, dad, kim666, Rosen, satanist666, thenecromancer, vasiljev_sergej,
Apr 5 2018, 15:27:40 Briareus - Sacrifice [demo] (2018)


*Artist: Briareus
*Album: Sacrifice [demo]
*Year: 2018
*Genre: Black/Death Metal
*Country: Australia
*Format: mp3@CBR256kbps
*Size: 23MB

Tracklist:
1. Sacrifice v2 03:03
2. Death Is Coming v2 04:11
3. Torn: Demise v2 04:30
******************************
Total playing time: 11:44



[more=Technical info]
Input File: BRIAREUS - Sacrifice - 01 Sacrifice v2.mp3
Channels : 2
Sample Rate : 44100
Precision : 16-bit
Duration : 00:03:03.88 = 8108888 samples = 13790.6 CDDA sectors
File Size : 6.10M
Bit Rate : 265k
Sample Encoding: MPEG audio (layer I, II or III)
Comments :
Title=Sacrifice v2
Artist=BRIAREUS
Album=Sacrifice
Tracknumber=1
Year=2018

[/more]

Register
(9) kim666, Razorbladeswaltz, Rosen, satanist666, SilentNidhogg, VALERY, varlam4, vasiljev_sergej, wreak,
Apr 1 2018, 14:02:01 Furfur - Ce Foutu Corbeau [demo] (2018)


*Artist: Furfur
*Album: Ce Foutu Corbeau [demo]
*Year: 2018
*Genre: Black Metal
*Country: France
*Format: mp3@CBR256kbps
*Size: 21MB

Tracklist:
1.Ce Foutu Corbeau 02:46
2.Misanthropie 4 02:33
3.Avant la Destruction... 03:15
4.La Nuit des Rats 01:25
******************************
Total playing time: 9:59



[more=Technical info]
Input File: Furfur - Ce Foutu Corbeau - 02 Misanthropie 4.mp3
Channels : 2
Sample Rate : 44100
Precision : 16-bit
Duration : 00:02:33.91 = 6787563 samples = 11543.5 CDDA sectors
File Size : 5.55M
Bit Rate : 288k
Sample Encoding: MPEG audio (layer I, II or III)
Comments :
Title=Misanthropie 4
Artist=Furfur
Album=Ce Foutu Corbeau
Tracknumber=2
Year=2018

[/more]

Register
(11) 1968_janeart, artscald, dermarsoran, kim666, Rosen, satanist666, thenecromancer, VALERY, varg-38ru, varlam4, vasiljev_sergej,
Mar 27 2018, 14:48:56 Gestank - Rathymns [ep] (2018)


*Artist: Gestank
*Album: Rathymns [ep]
*Year: 2018
*Genre: Black Metal
*Country: Sweden
*Format: mp3@CBR128kbps
*Size: 18MB

Tracklist:
1.The Bewitching Scent of Decay 05:38
2.Living the Total Negation 05:05
3.Nothing Left but This All Consuming Scorn 02:54
4.To Rule over the Waste Land 05:31
******************************
Total playing time: 19:08



[more=Technical info]
Input File: 2 - Living the total negation.mp3
Channels : 2
Sample Rate : 44100
Precision : 16-bit
Duration : 00:05:05.20 = 13459320 samples = 22890 CDDA sectors
File Size : 4.88M
Bit Rate : 128k
Sample Encoding: MPEG audio (layer I, II or III)

[/more]

Register
(10) 1968_janeart, artscald, Ildjarn, JuicyMaraca, kim666, Rosen, satanist666, Sjelekval, vasiljev_sergej, Wolftribes,
Mar 24 2018, 10:41:52 Infernal Rot - Tyrants Of Paleness [ep] (2018)


*Artist: Infernal Rot
*Album: Tyrants Of Paleness [ep]
*Year: 2018
*Genre: Black Metal
*Country: United States
*Format: mp3@CBR245kbps
*Size: 58MB

Tracklist:
1.Tyrants of Paleness 07:08
2.March of the Death Horde 06:58
3.Burning Procession of Hate 04:50
4.Hymn of the Cosmic Void 06:06
5.Wisdom of Decent 07:22
******************************
Total playing time: 32:24




[more=Technical info]
Input File: Infernal Rot - Tyrants of Paleness - 03 Burning Procession of Hate.mp3
Channels : 2
Sample Rate : 44100
Precision : 16-bit
Duration : 00:04:50.53 = 12812505 samples = 21790 CDDA sectors
File Size : 9.18M
Bit Rate : 253k
Sample Encoding: MPEG audio (layer I, II or III)
Comments :
Title=Burning Procession of Hate
Artist=Infernal Rot
Album=Tyrants of Paleness
Tracknumber=3
Year=2018

[/more]

Register
(11) 1968_janeart, Ildjarn, infiltrator, kim666, Rosen, satanist666, SilentNidhogg, stub888, VALERY, varlam4, vasiljev_sergej,
Mar 19 2018, 13:56:38 Anguana - Anguana (2018)
GREAT
(1) obituarydark,
Mar 18 2018, 20:06:11 Aborym - Live In Studio [demo] (1993)
thanks a lot.really appreciated true_black.gif
(1) thenecromancer,
Feb 26 2018, 20:28:29 Thy Dying Light - Forgotten By Time [compilation] (2018)


*Artist: Thy Dying Light
*Album: Forgotten By Time [compilation]
*Year: 2018
*Genre: Black Metal
*Country: United Kingdom
*Format: mp3@CBR128kbps
*Size: 39MB

Tracklist:
1.In Northern Mist 06:33
2.Fist of Satan 04:55
3.Carpathian Mountains 03:07
4.Kingdom of Darkness 04:43
5.Thy Dying Light 06:56
6.Plague Rats 06:27
7.Plague Rates Pt. II 04:50
8.Tombs of the Forgotten 06:31
9.Torn Apart by Wolves 05:43
******************************
Total playing time: 49:45



[more=Technical info]
Input File: 3 - Kingdom Of Darkness.mp3
Channels : 2
Sample Rate : 44100
Precision : 16-bit
Duration : 00:04:43.35 = 12495867 samples = 21251.5 CDDA sectors
File Size : 4.53M
Bit Rate : 128k
Sample Encoding: MPEG audio (layer I, II or III)

[/more]

Register
(4) Maximvs, Rosen, RUSP73, vasiljev_sergej,
Feb 4 2018, 12:57:43 Drinking Before Dawn - Domestic Violence [demo] (2018)


*Artist: Drinking Before Dawn
*Album: Domestic Violence [demo]
*Year: 2018
*Genre: Raw Black Metal
*Country: United States
*Format: mp3@CBR128kbps
*Size: 2MB

Tracklist:
1.Murder 00:48
2.Bestiality 00:52
******************************
Total playing time: 1:40



[more=Technical info]
Input File: 2 - Bestiality.mp3
Channels : 2
Sample Rate : 44100
Precision : 16-bit
Duration : 00:00:52.97 = 2335977 samples = 3972.75 CDDA sectors
File Size : 847k
Bit Rate : 128k
Sample Encoding: MPEG audio (layer I, II or III)

[/more]

Register
(3) Rosen, satanist666, vosmidesijatye,
Jan 28 2018, 20:34:03 Furfur - I Am The Fog [ep] (2018)


*Artist: Furfur
*Album: I Am The Fog [ep]
*Year: 2018
*Genre: Black Metal
*Country: France
*Format: mp3@CBR128kbps
*Size: 10MB

Tracklist:
1.I Am the Fog 02:50
2.J'emmerde Tes Croyances 02:33
3.Sortilège 03:17
4.Dieu est Tombé 03:16
******************************
Total playing time: 11:56



[more=Technical info]
Input File: 1 - I Am the Fog.mp3
Channels : 2
Sample Rate : 44100
Precision : 16-bit
Duration : 00:02:50.70 = 7527694 samples = 12802.2 CDDA sectors
File Size : 2.73M
Bit Rate : 128k
Sample Encoding: MPEG audio (layer I, II or III)

[/more]

Register
(9) artscald, dermarsoran, Enki, kim666, piledriver, Rosen, satanist666, varlam4, vasiljev_sergej,
Jan 27 2018, 12:04:15 Melancholic Equilibria - Trespassing Into My Subconscious [demo] (2018)


*Artist: Melancholic Equilibria
*Album: Trespassing Into My Subconscious [demo]
*Year: 2018
*Genre: Black Metal
*Country: India
*Format: mp3@VBR260kbps
*Size: 26MB

Tracklist:
1.Nihilistic Lust 04:31
2.Equilibria 04:43
3.Ea, Lord Of The Depths (Burzum Cover) 04:43
******************************
Total playing time: 13:57



[more=Technical info]
Input File: Melancholic Equilibria - Trespassing Into My Subconscious (Demo) - 02 Equilibria.mp3
Channels : 2
Sample Rate : 44100
Precision : 16-bit
Duration : 00:04:43.45 = 12500321 samples = 21259 CDDA sectors
File Size : 9.04M
Bit Rate : 255k
Sample Encoding: MPEG audio (layer I, II or III)
Comments :
Title=Equilibria
Artist=Melancholic Equilibria
Album=Trespassing Into My Subconscious (Demo)
Tracknumber=2
Year=2018

[/more]

Register
(9) 1968_janeart, Ildjarn, kim666, Razorbladeswaltz, Rosen, satanist666, thenecromancer, varg-38ru, varlam4,

14 Pages V   1 2 3 > » 
- Lo-Fi Version Support form
Copyrights and abuse reports form
Time is now: 24th September 2020 - 21:50:47