Welcome Guest ( Log In | Register )

История благодарностей участнику Lucius Eternal ::: Спасибо сказали: 2818 раз(а)
Дата поста: В теме: За сообщение: Спасибо сказали:
Dec 16 2014, 09:30:06 Lucifugum - Sublimessiah (2014)
ЦИТАТА(frost192 @ Dec 16 2014, 16:19:48) *
Вряд ли - Наумчук и его бебанутая женушка весьма мизантропичны

Качественно упоротые они, это да.

Кстати, я слушал второй, кажется, трек - и имею сказать, что всё очень плохо.
Вокал Наумчука - это адЪ. crazy.gif
(1) infiltrator,
Dec 16 2014, 09:15:57 Lucifugum - Sublimessiah (2014)
Надеюсь, участники группы придут в тред.
(2) crackedbrain, infiltrator,
Dec 16 2014, 00:31:53 Semargl - Killer Dance (2014)


*Artist: Semargl
*Album: Killer Dance
*Year: 2014
*Genre: Electro Industrial/Synth Pop
*Country: Ukraine
*Format: mp3@CBR320kbps
*Size: 112MB

Tracklist:
01. Save Me
02. Android
03. Demon´s Smile
04. Stand Up
05. Fly
06. Poison II
07. Touch
08. Go to Freedom
09. If You Ever
10. Give Me A Reason
11. Crazy Nation
12. Give Me A Reason II
13. Fallen
******************************
Total playing time: 47:48

Preview 1

[more=Extended info]По реквесту 6666666

[youtube]W1clrnHz0CA[/youtube][/more]

[more=Technical info]
Input File: 11. Crazy Nation.mp3
Channels : 2
Sample Rate : 48000
Precision : 16-bit
Duration : 00:02:34.11 = 7397136 samples ~ 11558 CDDA sectors
File Size : 6.17M
Bit Rate : 320k
Sample Encoding: MPEG audio (layer I, II or III)
Comments :
Title=11. Crazy Nation
Artist=Semargl
Album=Killer Dance
Tracknumber=11/13
Year=2014

[/more]

Register
(8) 6666666, BeerBear, finntroll3, folker, Jurmagund, Ludwig Hagen, sperminator, Vidsyn,
Dec 15 2014, 19:31:20 Новости Death Metal направления
ЦИТАТА(frost192 @ Dec 16 2014, 02:04:14) *
Вторая - СФ будут играть тупее и прямолинейнее.

Ещё тупее и прямолинейнее, чем на Титане, вряд ли реально сыграть.
Я тоже от Керима не в восторге, но давай подождём и посмотрим.
Dec 15 2014, 19:25:33 Ascension - The Dead Of The World (2014)
Довольно посредственно, если честно. Каждый трек можно было бы сделать вдвое короче, ничего не теряя. Атмосферы, разумеется, здесь никакой нет.
(2) shitsic, UlvhedinGrom,
Dec 14 2014, 19:53:45 Portal & Blood Of Kingu - Portal/Blood Of Kingu [split] (2014)
Register
(13) Demonologist, Emhyr var Emreis, infiltrator, kimkayoung, Old Vyaine, Psychostatusrem, satanist666, squall8fr, suseka, thornfields, varlam4, Winter Funeral, wtk.412,
Dec 14 2014, 19:46:44 Пердящий в темноте - Сибирский Блюз (2012)
ЦИТАТА
ты просто не чувствуешь музыку душой

[more="Лiл"][/more]
(1) Winterkalte,
Dec 14 2014, 08:42:15 Nexrist - Война​ (2014)


*Artist: Nexrist
*Album: Война​
*Year: 2014
*Genre: Black Metal
*Country: Russian Federation
*Format: mp3@VBR242kbps
*Size: 58MB

Tracklist:
01. На Войну 2:35
02. Час Смерти 4:11
03. Дьявольский Ветер 4:17
04. Война 4:25
05. По Кровавому Снегу 4:50
06. С Древних Времен 2:38
07. Instrumental 2:37
08. Холокост 3:07
09. Поле Смерти 2:46
******************************
Total playing time: 31:26

Register
(17) Aresson, Darkthronefoad, kim666, LordHaart, Moonshtook, oldvarg, Rattenkonig, Raw1488, Rosen, satanist666, serach, tont, VALERY, varg-38ru, varlam4, vasiljev_sergej, wreak,
Dec 14 2014, 08:23:58 Order Of The Ironfist - Forever War [ep] (2014)


*Artist: Order Of The Ironfist
*Album: Forever War [ep]
*Year: 2014
*Genre: Black/Death Metal
*Country: Germany
*Format: mp3@CBR320kbps
*Size: 31MB

Tracklist:
01. Intro/Forever War 5:34
02. Vision Of Nuclear Desecration/Infernal 8:05
******************************
Total playing time: 13:39

[more=Technical info]
Input File: Side A- Intro, Forever War.mp3
Channels : 2
Sample Rate : 44100
Precision : 16-bit
Duration : 00:05:34.19 = 14737735 samples = 25064.2 CDDA sectors
File Size : 13.5M
Bit Rate : 322k
Sample Encoding: MPEG audio (layer I, II or III)
Comments :
Title=Side A: Intro, Forever War
Artist=Order Of The Ironfist
Album=Forever War
Tracknumber=1
Year=2014

[/more]

Register
(11) Darkthronefoad, killingod, NachtWulf, Rosen, satanist666, serach, VALERY, vasiljev_sergej, vov7609, Wolftribes, wreak,
Dec 14 2014, 08:08:59 Göät Dëströyër 666 - Goats Over Transylvania (2014)


*Artist: Göät Dëströyër 666
*Album: Goats Over Transylvania
*Year: 2014
*Genre: Black Metal
*Country: Australia
*Format: mp3@CBR320kbps
*Size: 63MB

Tracklist:
01. Unrope the Goats 1:26
02. Sending the Swarms to the Goathead 6:29
03. Hooves ov War 4:05
04. We Are Goats...Fvkk You!! 3:20
05. Goatpokalypse 2:08
06. Sphere ov Goatitude 9:10
******************************
Total playing time: 26:38

[more=Technical info]
Input File: G??t D?str?y?r 666 - Goats Over Transylvania - 05 Goatpokalypse.mp3
Channels : 2
Sample Rate : 44100
Precision : 16-bit
Duration : 00:02:07.88 = 5639552 samples = 9591.07 CDDA sectors
File Size : 5.22M
Bit Rate : 327k
Sample Encoding: MPEG audio (layer I, II or III)
Comments :
Title=Goatpokalypse
Artist=Göät Dëströyër 666
Album=Goats Over Transylvania
Tracknumber=5
Year=2014

[/more]

Register
(21) 0x13, Borderline1991, ddarkthrone, goregrindexx, Moonshtook, princeshr, randumbum, Rattenkonig, Rosen, rpa, RUSP73, satanist666, serach, sperminator, templ, tont, VALERY, varlam4, vasiljev_sergej, vov7609, wreak,
Dec 13 2014, 10:35:01 Necromancy - ... Y A Satanás Gloria !!! (2004)
[youtube]76H4f2ESL9M[/youtube]
Видео в своём роде уникальное - можно увидеть, как Марсело, поклонник пива, козла и анала, по молодости готично колбасился под симфоблэк изображая Шаграта.

Альбом - перезалито сейчас.
Register
(5) artscald, dermarsoran, INDARKNESS, luxxul, satanist666,
Dec 12 2014, 15:32:16 Demonic Slaughter - Haunted (2014)
+ mega
Register
(6) aserius, cancer1974, Chasm, nsk2008, RUSP73, sethurius,
Dec 12 2014, 14:59:30 Bhleg - Draumr Ást (2014)
+mega
Register
(4) andeimon, QuadenThyrane, V1nterch, Wolfera,
Dec 12 2014, 13:03:55 Пердящий в темноте - Сибирский Блюз (2012)


*Artist: Пердящий в темноте
*Album: Сибирский Блюз
*Year: 2012
*Genre: Black Metal/Punk
*Country: Russian Federation
*Format: mp3@VBR298kbps
*Size: 161MB

Tracklist:
01. Зловещее Мизантропическое Дристалово под Сосной на Мистически Освещённый Луной Снег
02. Будь Мужиком, Няшься под Тру Блэк, Блеать
03. Ненавидь Кавайно
04. Дочь Придёт Домой не Вся (Thrash Black это няшно)
05. Freezing Sailor Moon (Mayhem - няшные анимешники-муняшки, кавайся!)
06. Сатанинское Ня
07. Чем Тебя - Лучше Труп
08. Рождённому Какашкой Тяжело Быть Няшкой
09. Shining Abyss (Гимн Смерти и ухода в Хаос - памяти Пердяшки Пукина)
10. Восперди во Имя Тьмы
11. Презираю ЛаВея - Уважаю ЛаВаш
12. Няшная Песенка во имя Сатаны и Тиё-тян
******************************
Total playing time: 1:18:54

Review (English)

[more=Extended info]Стёбная концепция и при этом достаточно талантливое, эклектично-психоделичное содержание.[/more]

Register
(19) 380672702486, blacky66, DarkHorde, Disgorge666, mardak666, Moonshtook, neoatheist, oldvarg, qpMM, rabindranad, Rattenkonig, Rosen, Scuns, tont, tr00ps, udjin, VALERY, wreak, Герб,
Dec 12 2014, 09:27:02 Goatcraft - The Blasphemer (2014)


*Artist: Goatcraft
*Album: The Blasphemer
*Year: 2014
*Genre: Neoclassical
*Country: United States
*Format: mp3@CBR320kbps
*Size: 128MB

Tracklist:
01. Intro: Behemoth
02. Temptation And Fall
03. House Of Death
04. The Blasphemer
05. Hecate
06. Nebuchadnezzar
07. In The Arms Of Pity
08. The Great Red Dragon Part I - The Woman Clothed With The Sun
09. The Great Red Dragon Part II - The Woman Clothed In The Sun
10. The Great Red Dragon Part III - The Beast From The Sea
11. The Great Red Dragon Part IV - The Number Of The Beast
12. Eternal Prayer of Urizen
13. Satan in His Original Glory
14. Outro: Leviathan
******************************
Total playing time: 57:18



[more=Technical info]
Input File: GOATCRAFT - The Blasphemer - 03 House Of Death.mp3
Channels : 2
Sample Rate : 44100
Precision : 16-bit
Duration : 00:03:14.81 = 8591253 samples = 14611 CDDA sectors
File Size : 8.14M
Bit Rate : 334k
Sample Encoding: MPEG audio (layer I, II or III)
Comments :
Title=House Of Death
Artist=Goatcraft
Album=The Blasphemer
Tracknumber=3
Year=2014

[/more]

Register
(11) cesar, Evilded, Fryz, gena, Moonshtook, Necromag, Ostinato, tireheb, varlam4, Velkaarn, Vlosinssrigg,
Dec 11 2014, 23:55:27 Qntal - Ozymandias (2005)
Пожалуй, этот альбом стоит того, чтоб его ре-апнуть.
Register
(1) 6666666,
Dec 11 2014, 19:43:07 Undergang - Kogt I Blod [demo] (2014)
Зеркало на человеческий обменник
Register
(8) Anhra Mainyu, Chasm, desekrator, Leshiy666, MeathookSeed, Nemesia, sperminator, Герб,
Dec 11 2014, 19:02:35 Омела - Амальгама Теней (2014)
ЦИТАТА(Лучъ @ Dec 12 2014, 01:58:07) *
до этого не знал о этой банде.

Ну ты даёшь.

Альбом даже не бомба, а целая ядерная война чистой победы!
(2) Daecadance, Old Vyaine,
Dec 11 2014, 11:28:39 Inquisition - Invoking The Majestic Throne Of Satan (2002)
Register
(4) Constantinus I, Sarcis, skeletron215, Zenial,
Dec 11 2014, 11:19:20 Von - Satanic Blood Angel [compilation] (2003)
Register
(7) artscald, Exxie, juand, lafuma, Mist13Signifier, WX419, zlvd,
Dec 10 2014, 17:15:05 Duskmourn - Legends (2014)
Register
(10) 6666666, Ash_1980, Black Arts, Doooomed, Egoist7, neoatheist, QuadenThyrane, rabindranad, ShmiT, Spunkynut,
Dec 9 2014, 15:01:18 Napalm Death - Diatribes (1996)
ЦИТАТА(Old Vyaine @ Dec 9 2014, 21:10:58) *
есть музыка, а есть её отсутствие. Ранний Напалм Дэт относится ко второй категории.

Довольно упитанно.
(1) vosmidesijatye,
Dec 8 2014, 18:20:19 Satarial - Lunar Cross (2014)


*Artist: Satarial
*Album: Lunar Cross
*Year: 2014
*Genre: Gothic/Black Metal
*Country: Russian Federation
*Format: mp3@CBR320kbps
*Size: 111MB

Tracklist:
1. Nerone
2. Horned One
3. If Somebody Die
4. Baptized By Fire And Sword
5. Witches Night
6. Eternity
7. Flower Of Datura
8. Moon And Fire
9. Spell Of Formation
10. Queen Of Hell / Baptized By Fire And Sword (Russian Version)
******************************
Total playing time: 1:00:50



[more=Extended info]Спектры - особенность записи.[/more]

[more=Technical info]
Input File: 09 - Spell Of Formation.mp3
Channels : 2
Sample Rate : 44100
Precision : 16-bit
Duration : 00:03:39.85 = 9695341 samples = 16488.7 CDDA sectors
File Size : 8.83M
Bit Rate : 321k
Sample Encoding: MPEG audio (layer I, II or III)
Comments :
Title=Spell Of Formation
Artist=Satarial
Album=Lunar Cross
Tracknumber=9
Year=2014
Genre=138

[/more]

Register
(32) andeimon, artscald, BeerBear, BlackTiger, blacky66, Cartman223, crackedbrain, DarkHorde, dulak, frwd, gusto24191, jorgeguldur, Misanthrope@, Moonshtook, Necromayhem, oldvarg, Orgasmik, Phlebotomized, Pinhead666, princeshr, psxxx, randumbum, Reverend, Rosen, Sanc, satanist666, tont, Valdmaar, VALERY, varlam4, whiteWolf666, Сварог Барг,
Dec 7 2014, 17:42:24 Qntal - VII (2014)


*Artist: Qntal
*Album: VII
*Year: 2014
*Genre: Medieval/Darkwave
*Country: Germany
*Format: mp3@VBR269kbps
*Size: 118MB

Tracklist:
1. Flaming Drake
2. Tenacious Love
3. Tyger
4. By The Light Of The Moon
5. Blow Northene Wynd
6. Swebend
7. Frьhlingslied
8. Schnee
9. In Dem Begyn
10. Rossignolet
11. Flame Amoureuse
12. Musa Venit
13. Melos Lacrimosum
14. Nox Aeterna
******************************
Total playing time: 59:52

Preview 1

[more=Extended info]по реквесту 6666666[/more]

Register
(23) 6666666, Cartman223, DarkYantar, fragment, hofelia, Indamage, Infidel, Jurmagund, kakha_k, lucifix, Metropolis, Mirddin, Moonshtook, Mplast, Orgasmik, SatanicPanzer, satanist666, ShmiT, v.v.m, VALERY, vam1972, Wolfera, zhw8tz1,
Dec 4 2014, 19:24:05 Лучший Black Metal, под-жанры, география, периоды.
ЦИТАТА(EvilSurround @ Dec 5 2014, 01:43:52) *
Итак, труЪ Hорвегия девяностых лидирует, но это не удивительно

Действительно. Дебилов и говноедов всегда большинство.
ЦИТАТА
BATHORY, MARDUK, DARK FUNERAL

Не блэк, дерьмо и дерьмо.

Ты акуенный знаток, песдуй в печь.
(2) acerbus, alzus,

18 Pages V   1 2 3 > » 
- Lo-Fi Version Support form
Copyrights and abuse reports form
Time is now: 9th December 2019 - 05:50:41