Welcome Guest ( Log In | Register )

История благодарностей участнику ivanasyanin ::: Спасибо сказали: 1786 раз(а)
Дата поста: В теме: За сообщение: Спасибо сказали:
Jun 11 2018, 08:40:38 Альбом 2013 года в жанре technical / progressive death. Тур2
Deeds Of Flesh - Portals To Canaan - 1
Defeated Sanity - Passages Into Deformity - 1
Gigan - Multi-Dimensional Fractal-Sorcery And Super Science - 1
Gorguts - Colored Sands - 2
Pestilence - Obsideo - 1
Suffocation - Pinacle of Bedlam - 2
Wormed — Exodromos - 1
(1) Язва,
May 24 2018, 21:19:05 Сатурналии (Антипопсовая голосовалка) Часть 2 - 1991-1993, Тур 2
1991:
Anacrusis - Manic Impressions -1
Cancer - Death Shall Rise -1
Intruder - Psycho Savant +1
Massacre - From Beyond +1
Morgoth - Cursed +1
Pungent Stench - Been Caught Buttering +1
Sabbat - Mourning Has Broken -1
Solitude Aeturnus - Into The Depths Of Sorrow +2
Чёрный Обелиск - Стена -1

1992:
Cemetary - An Evil Shade Of Grey -1
Dark Millennium - Ashore The Celestial Burden +1
Disharmonic Orchestra - Not to Be Undimensional Conscious +2
Master's Hammer - The Jilemnice Occultist +1
Mekong Delta - Kaleidoscope +3
Nocturnus - Thresholds +1
Pyogenesis - Ignis Creatio (EP) +1
Solitude Aeturnus - Beyond The Crimson Horizon +2
Xentrix - Kin -1

1993:
Believer - Dimensions -1
Brutality - Screams of Anguish -1
Cemetary - Godless Beauty +1
Dark Millennium - Diana Read Peace +2
Demilich - Nespithe +2
Morgoth - Odium +1
Necromantia - Crossing The Fiery Path -1
Pan.Thy.Monium - Khaooohs +1
Sadist - Above The Light +2
(2) Deze, Mplast,
May 22 2018, 15:52:44 At The Gates - To Drink From The Night Itself (2018)
Альбом чОток.
Некоторые куски в песнях схожи, но они не составляют основу этих композиций, поэтому их наличие не вызывает негатива. Пока выделить что-то не могу - альбом монолитен. Все песни растворяются друг в друге, образуя некую музыкальную ауру, заполняющую пространство вокруг меня и наполняя чувствами грусти и отрешенности.
(1) 6666666,
Apr 28 2018, 05:38:07 Judas Priest - Firepower (2018)
Музыка на альбоме не вызвала никаких эмоций абсолютно smile2.gif
(3) Ghostb, kakha_k, MetalgeR,
Apr 18 2018, 17:58:37 Альбом 2013 года в жанре technical / progressive death. Тур1
ЦИТАТА(hammer @ Apr 18 2018, 19:36:32) *
Ну это просто "взрыв" мозга.Тут новые не помнишь а про старые альбомы я вообще молчу. 1488.gif 1488.gif

Идеальных альбомов, граничащих с шедеврами, каждый год выходит 1-2, поэтому долго вспоминать не приходится
(1) Deze,
Apr 18 2018, 15:04:33 Альбом 2013 года в жанре technical / progressive death. Тур1
Suffocation - Pinacle of Bedlam 2 балла
Mortal Decay - The Blueprint For Blood Spatter 2 балла
Defeated Sanity - Passages Into Deformity 1 балл
Gorguts - Colored Sands 2 блабла
Witherscape - The Inheritance 2 балаа
(1) Язва,
Apr 17 2018, 21:41:34 Сатурналии (Антипопсовая голосовалка) Часть 1 - 1981-1990
1988: Mekong Delta "Music of Erich Zann"
1989: Watchtower "Control And Resistance"
1990: Nocturnus - "The Key"
(1) vam1972,
Apr 14 2018, 08:58:43 Сатурналии (Антипопсовая голосовалка) Часть 1 - 1981-1990 (1) Deze,
Apr 6 2018, 14:19:35 Новости Death Metal направления
ЦИТАТА(judaz @ Apr 6 2018, 10:58:23) *
Это прекрастно.

Это ж каким фанатом Шульдинера нужно быть, чтобы этот вторичный бэнд котировать? hmm.gif
(2) infiltrator, maxmagmas,
Apr 3 2018, 21:03:59 Новости Death Metal направления
ЦИТАТА(FullofHate @ Apr 3 2018, 22:33:11) *
О, да!!! Vomitory действительно возвращаются!
Есть даже новость на официальном фейсе
Не смотря на то, что последний Опус Мортис вышел не особо, я верю в этих мужиков
THIS_IS_SPARTA_v2_0_by_DoooM.gif

Собираются они лишь ради юбилея и концертов ему посвященных. Не более того. У них сейчас Cut Up есть, зачем под вывеской Vomitory что-то выпускать?
(2) Decapitated, infiltrator,
Mar 26 2018, 17:19:10 Сатурналии (Антипопсовая голосовалка) Часть 1 - 1981-1990
Watchtower Control and Resistance 1989
Watchtower Energetic Disassembly 1985
Nocturnus The Key 1990
Poltergeist - Depression 1989
Vendetta - Go and Live ... Stay and Die 1987
Vendetta - Brain Damage 1988
Toxik - Think This 1989
Exhorder - Slaughter in the Vatican 1990
Demolition Hammer - Tortured Existence 1990
Agony - The First Defiance 1988
Cabal - Midian 1990
(2) infiltrator, Mplast,
Mar 14 2018, 18:50:14 Sevenday Curse - After The Storm (1999)


*Artist: Sevenday Curse
*Album: After The Storm
*Year: 1999
*Genre: Melodic Death Metal
*Country: United States
*Format: mp3@CBR320kbps
*Size: 100MB

Tracklist:
1. ...and Earth Was No More 01:03
2. Dirge for the Living 05:04
3. Lament of the Fallen 05:34
4. Endless Pit of Need 02:56
5. Of Every Season 03:01
6. Grey Is Our Eternity 05:51
7. Final Catastrophe 01:54
8. November 02:58
9. Revelations 05:11
10. The Color Blood (Live) 07:31
******************************
Total playing time: 41:03



[more=Extended info]Recorded at Godcity Recording Studio, Salem, Massachusetts.
Mastered at 9 West Mastering, Marlboro, Massachusetts.[/more]

[more=Technical info]
Input File: Sevenday Curse - After the Storm - 08 November.mp3
Channels : 2
Sample Rate : 44100
Precision : 16-bit
Duration : 00:02:58.90 = 7889622 samples = 13417.7 CDDA sectors
File Size : 7.24M
Bit Rate : 324k
Sample Encoding: MPEG audio (layer I, II or III)
Comments :
Title=November
Artist=Sevenday Curse
Album=After the Storm
Tracknumber=8
Year=1999

[/more]

Register
(10) Evilded, infiltrator, Korpse, Mogozoz, Rosen, Rover, SymbyoticEntity, VALERY, varlam4, Xaradonth,
Mar 13 2018, 17:54:39 Новости Brutal Death Metal и Grind(core) направлений
[youtube]NwvZAgpkM20[/youtube]
(3) DarkHorde, infiltrator, ripper33,
Mar 13 2018, 15:39:15 Новости Brutal Death Metal и Grind(core) направлений (2) infiltrator, Tular,
Mar 9 2018, 18:46:34 Кто какие альбомы ждёт? Albums you are waiting for
Soilwork, 7H. Target, Relics of Humanity, Misery Index, Sodom, Gorod, Atheist, Psycroptic, Tool, Pyrexia, Nile, Obscura, Omnium Gatherum, Arsis
(2) infiltrator, MeatWolf,
Mar 2 2018, 12:09:56 Новости направления MDM
[youtube]dhru7gT0cIE[/youtube]
(1) Nattfodd,
Feb 15 2018, 20:29:41 Machine Head - Catharsis (2018)
Ну и херня..Полторы нормальных песни, всё остальное какое-то нудное нытьё с какими-то нелепыми брейками и бессвязными музыкальными фразами, сшитыми между собой абсолютно бездумно. Также ужасно раздражает постоянные пыхтения Роба и его полунытьё, которое якобы добавляет эмоций песням. Нет. Это просто начинает по-настоящему бесить, потому что вставляет он свои пыхтелки-пришептывания везде где только можно. Ещё надоело вот это повторение куплета вполголоса в каждом треке под фоновый шум усилителя и/или скучный, медленный ритм ударных.
(2) aesteticvice, vosmidesijatye,
Jan 26 2018, 16:26:33 Machine Head - Catharsis (2018)
ЦИТАТА(Bitchkiller @ Jan 26 2018, 15:42:15) *
После той истории, когда юный блохер Роб, начал гнать всякое дерьмо на Фильку, которому не то, что в глаза ничего не смог сказать, но даже тупо уйти со сцены раз то, что сделал Фил его так задело и шло в разрез с его моральными принципами. Собсна этот альбом окончательно подтвердил то, что Флинн это музыкальный флюгер и петуч в одном лице. Нет ему уважения и за то, что Дьюса выгнал, а потом еще песню, как нигер какой-то с дисом, на эту тему написал. Любит этот персонаж выносить сор из избы, т.к. понял еще в 90е, что на этом можно заработать.

Идиоту 50, а он все ноет, о каком-то непонимании и тяготах жизни, словно подросток.

15.gif facessspalm.png

Внатуре напрягает эта херня..По каждому поводу недовольство своё на ютубе изливает. Недавно в каком-то журнале на новый альбом МН накатали рецу негативную, так они (MH) создали пост на своей странице на Facebook со ссылкой на эту рецензию и открыто послали рецензента на ***, попутно вопрошая у фанатов, что они по поводу этого всего думают. Ну им и написали - ''повзрослейте уже''.
ЦИТАТА
DECIBEL MAGAZINE SLAMS "CATHARSIS"!
The former-Decibel cover stars new album gets called "juvenile", "stupid", "endlessly pummeling" and a "Super Collider-level-miss".

Oh, and hey... FUCK YOU Jeff Treppel!!
(5) Baudolino, Black Cat, Dargaud, Tular, vosmidesijatye,
Jan 22 2018, 17:10:22 Новости Thrash Metal направления
ЦИТАТА(Thrashman @ Jan 22 2018, 18:36:12) *
походу отцы решили завязать.. 17.gif

[youtube]uUCdUCxTjyI[/youtube]

Верное решение.
(3) Frostmourne, infiltrator, vosmidesijatye,
Jan 15 2018, 20:01:11 Cynic - Humanoid [single] (2018)


*Artist: Cynic
*Album: Humanoid [single]
*Year: 2018
*Genre: Progressive Rock
*Country: United States
*Format: mp3@CBR320kbps
*Size: 10MB

Tracklist:
1. Humanoid 04:08
******************************
Total playing time: 4:08



[more=Extended info]Paul Masvidal Vocals, Guitars, Vocoder vocals, Guitar synth
Sean Malone Bass, Chapman stick
Matt Lynch Drums[/more]

[more=Technical info]
Input File: Cynic - Humanoid.mp3
Channels : 2
Sample Rate : 44100
Precision : 16-bit
Duration : 00:04:08.66 = 10965730 samples = 18649.2 CDDA sectors
File Size : 10.0M
Bit Rate : 323k
Sample Encoding: MPEG audio (layer I, II or III)
Comments :
Title=Humanoid
Artist=Cynic
Year=2018

[/more]

Register
(16) Aresson, BERZERK, cancer1974, Evgundel, gena, Hell_Is_Here, Lux, marilin, Metalass, Mplast, Ostinato, princeshr, SameMan, vader69, Yarri, ZambuL,
Jan 5 2018, 12:07:18 Demolition Pit - 13 Lessons In Aggression (1995)
А ведь неплохо! Хоть звучание инструментов и вокал копируют Panter'у практически подчистую, в остальном музло достаточно интересное чтобы держать слушателя в тонусе до конца альбома. Для поклонников жанра и группы Pantera в частности - знатный кусок "ржавого" метала на 42 минуты.
09. - Fight Отличная расколбасная вещь для брутальных дискотек banana.gif
(1) Aresson,
Dec 24 2017, 10:33:53 Pestilence - Hadeon (2018)
ЦИТАТА(Sinuhe @ Dec 24 2017, 10:47:40) *
Что-то совсем не понравилось. Если бы не вывеска Pestilence то вообще бы выключил на втором треке.

А я думаю, что наоборот, не зная что за банда скрывается за облогой можно с первых секунд узнать кто исполнитель, т.к. стиль у Патрика уникальный и угадывается сразу.
Музло на альбоме изначально и задумывалось как возвращение к звучанию первых работ. Вообще, весь материал предназначался для выхода под вывеской Moordzucht (один из новых проектов Патрика, вокалистом в которой с недавних пор значится Aad Kloosterwaard). Тем, кто хочет чего позаумнее придется подождать выхода альбома от проекта Neuromorph.
(4) Anhra Mainyu, metala, Thrashman, Луч,
Nov 22 2017, 18:49:19 CyHra - Letters To Myself (2017)
Радует, что наконец-то Йеспер куда-то "воткнулся" и продолжает творить, а то совсем жалко мужика было. Хоть он и сам до этого докатился.
Альбом радует ухо уже который день подряд! Хотя я и не особо часто слушаю такого рода музыку, но вот этот альбом прям в жилу, что говорится. Многие темы крутятся в голове целый день и не думают уходить, как бы я их оттуда не выгонял с помощью Suffocation, Pyaemia и Deeds of flesh. ХЗ чего вокал вам не нравится, всё в рамках стиля.
Честно, ждал что-то в стиле IF "среднего" периода, но в итоге ни разу не разочаровался. Может даже диск возьму когда-нибудь fear.gif
(1) MeatWolf,
Nov 8 2017, 09:47:01 7 H.Target - Promotional Disc '17 [demo] (2017)
ЦИТАТА(Haunting @ Nov 8 2017, 11:35:14) *
Не скажу ничего плохого по поводу его вокальных талантов, но будучи на одном из Coyote Brutal Fest, меня неимоверно достало его мельтешение по сцене с постоянными фразами в духе "давайте, йотпта... не стоим... активнее, йопта". Эффект скорее раздражающий своей неуместной назойливостью.

По-поему этим и должен заниматься фронтмен во время выступления - взаимодействовать с аудиторией, дабы хоть как то её раскачать. По моему опыту посещения концертов скажу, что чаще всего народ стоит как вкопанный и только изредка кивает головой, поэтому такие вот “заводилы” нередко исправляют ситуацию, что в целом положительно влияет на впечатления о гиге.
(1) Лицемер,
Nov 8 2017, 09:13:56 7 H.Target - Promotional Disc '17 [demo] (2017)
ЦИТАТА(Chasm @ Nov 8 2017, 10:32:34) *
ну помнится в 2012 басист вокалил на концерте.

И всё же когда вокалом занимался Дмитрий Золонцов из Cremated Lives эффект от выступления был совсем другим.
(1) Лицемер,

21 Pages V   1 2 3 > » 
- Lo-Fi Version Support form
Copyrights and abuse reports form
Time is now: 22nd June 2018 - 21:43:27